Boyz II Men -《Full Circle 》[APE]

Boyz II Men -《Full Circle 》[APE]
  • 片  名  Boyz II Men -《Full Circle 》[APE]
  • 简  介  音乐风格: 节奏布鲁斯发行时间: 2002年地区: 美国语言: 英语
  • 类  别  音乐
  • 小  类  欧美音乐


  • 详细介绍专辑英文名: Full Circle 歌手: Boyz II Men音乐风格: 节奏布鲁斯资源格式: APE发行时间: 2002年地区: 美国语言: 英语简介: 专辑介绍:
    【Boyz II Men】成立于1988年,其四个成员Shawn Stockman(1972.9.26--)、Wanya Morris(1973.7.29--)、Nathan Morris(1971.6.18--)以及Micheal McMary(1972.12.16--)都是费城音乐学校(the Creative Performing Arts High School)的学生。当他们发现四个人的声音混和在一起要比一个人独唱悦耳得多的时候,他们走到了一起。
    酝酿了三年的全新大碟《Full Circle》发行,这张专辑是Boyz Ⅱ Men出道以来的第五张专辑,此次Boyz Ⅱ Men亲自操刀制作,不仅收录他们自己谱写的新歌,还获得多位顶尖制作人协助打造跨时代的经典作品。首只柔美暖心曲“Pass You By”的词曲由Shawn执笔,和声依然完美无瑕,再度展现最典型的Boyz Ⅱ Men民谣风格。团员们最喜欢的一首歌“Dream”曲风纯熟浓郁。Boyz Ⅱ Men的天籁合音令这张专辑充分展现出他们发自内心深处的一面。
    引用PERFORMER Boyz II Men
    TITLE Full Circle
    FILE Boyz II Men - Relax Your Mind (feat. Faith Evans).专辑.(ape).ape WAVE
    TRACK 01 AUDIO
    TITLE Relax Your Mind (feat. Faith Evans)
    INDEX 01 00:00:00
    TRACK 02 AUDIO
    TITLE The Color Of Love
    INDEX 01 04:04:10
    TRACK 03 AUDIO
    TITLE Ain't A Thang Wrong (feat. Rob Jackson)
    INDEX 01 08:55:05
    TRACK 04 AUDIO
    TITLE Oh Well
    INDEX 01 13:04:15
    TRACK 05 AUDIO
    TITLE Whatcha Need
    INDEX 01 17:58:52
    TRACK 06 AUDIO
    TITLE On The Road Again
    INDEX 01 23:02:55
    TRACK 07 AUDIO
    TITLE Makin' Love (Interlude)
    INDEX 01 27:17:05
    TRACK 08 AUDIO
    TITLE Roll Wit Me
    INDEX 01 29:14:22
    TRACK 09 AUDIO
    TITLE Right On Time
    INDEX 01 32:46:10
    TRACK 10 AUDIO
    TITLE Howz About It
    INDEX 01 37:45:25
    TRACK 11 AUDIO
    TITLE That's Why I Love You
    INDEX 01 41:47:15
    TRACK 12 AUDIO
    TITLE I'm OK, You're OK
    INDEX 01 47:02:07
    TRACK 13 AUDIO
    TITLE Luv N U
    INDEX 01 51:53:62
    TRACK 14 AUDIO
    TITLE I'll Show You
    INDEX 01 57:02:12
  • Boyz II Men -《Full Circle 》[APE]_large