Various Artists 群星 -《恩雅故乡的爱尔兰情歌》(Irish Love with Enya)[APE+MP3][APE]

Various Artists 群星 -《恩雅故乡的爱尔兰情歌》(Irish Love with Enya)[APE+MP3][APE]
  • 片  名  Various Artists 群星 -《恩雅故乡的爱尔兰情歌》(Irish Love with Enya)[APE+MP3][APE]
  • 简  介  发行时间: 2006年
  • 类  别  音乐
  • 小  类  新世纪音乐


  • 详细介绍专辑英文名: Irish Love with Enya专辑中文名: 恩雅故乡的爱尔兰情歌艺术家: Various Artists 群星资源格式: APE版本: [APE+MP3]发行时间: 2006年地区: 英国语言: 英语简介: mp3编码品质:320kbps
    专辑介绍:
      还记得电影《魔戒首部曲》中深远动人的“May It Be 衷心祈祷”吗?恩雅的歌声就像一朵在夜晚温柔绽放的花,沉静却带有无穷力量。来自爱尔兰的恩雅除了是新世纪乐坛最佳美声代表,她在音乐上的创作泉源更是汲取于对家乡土地的种种感受。
      在酷客唱片公司于2006年发行的这张专辑中,特别收录多首恩雅推荐珍藏的爱尔兰着名歌曲,在扬琴、竖琴、风笛、锡口笛、巴朗鼓等独特民族乐器铺陈下,吟唱难得一见的翠茵碧湖;不论是雅致如星空的摇篮名曲“The Sally Gardens 莎莉花园”、音乐意象强烈的“Far Away 随风而逝”或是民族情感深融其中的“The Mummer’s Dance 舞曲女伶”,在变化万千旋律中,犹如亲见遗世小岛的多种风貌,一起感受来自恩雅故乡的永恒美丽……  2009年10月26日更新说明:本帖原名为“Enya 恩雅 -《恩雅的爱尔兰情歌》(Irish Love with Enya)[APE+MP3][APE]”,是我受到封面和专辑名称的误导(或说是我误解了专辑名称),误将艺术家认为是“Enya 恩雅”。各位网友慧眼识真相,热情指出疑点。尤其是“Panbe”终于让我彻底清醒。今天特将CD重新抓轨,删除原来的源,将新源更新上去。mp3编码品质由原来的128k改为320k。在此向VC的广大网友致歉!并感谢各位的指正,特别感谢网友“Panbe”!
  • Various Artists 群星 -《恩雅故乡的爱尔兰情歌》(Irish Love with Enya)[APE+MP3][APE]_large

精选评论


大概搜索了下,这个资源是台湾一个唱片公司出的~
lz可以申精哦~
enya现在出新专辑了嘛,不知道什么时候能有下载。呵呵
enya推荐的?寒。。这不是忽悠人么。。
哦呵呵!太漂亮的封面彩页了,既象丝绸又像油画!
有些歌不错,有些听了就像催眠曲。
我喜歡爱尔兰的歌曲,也喜歡Enya的歌,谢谢楼主分享。
谢谢楼主,很喜欢ENYA的声音。
我觉得APE格式的最好不要发压缩格式的,这样不利于大家保源。今后的网友要下下来很困难,直接发APE和CUE 。
如果只想下CUE而不想下APE的,我单独贴一个CUE出来吧:

REM GENRE "New Age"
REM DATE 2006
REM DISCID ED0F020F
REM COMMENT "ExactAudioCopy v0.99pb4"
PERFORMER "Enya 恩雅"
TITLE "Irish Love with Enya 恩雅的爱尔兰情歌"
FILE "CDImage.ape" WAVE
TRACK 01 AUDIO
TITLE "The Mummer’s Dance 舞曲女伶"
PERFORMER "Enya 恩雅"
INDEX 01 00:00:00
TRACK 02 AUDIO
TITLE "The Mo Run Air A Ghille (I Love The Lad) 钟爱大地"
PERFORMER "Enya 恩雅"
INDEX 01 05:47:70
TRACK 03 AUDIO
TITLE "Far Away 随风而逝"
PERFORMER "Enya 恩雅"
INDEX 01 11:17:57
TRACK 04 AUDIO
TITLE "Ready For The Storm 风暴将至"
PERFORMER "Enya 恩雅"
INDEX 00 15:48:73
INDEX 01 15:48:74
TRACK 05 AUDIO
TITLE "Prologue 序言"
PERFORMER "Enya 恩雅"
INDEX 00 19:56:40
INDEX 01 19:56:42
TRACK 06 AUDIO
TITLE "Angel Dream 天使之梦"
PERFORMER "Enya 恩雅"
INDEX 00 24:16:29
INDEX 01 24:16:31
TRACK 07 AUDIO
TITLE "Lyra 天琴座"
PERFORMER "Enya 恩雅"
INDEX 00 27:40:42
INDEX 01 27:40:47
TRACK 08 AUDIO
TITLE "May It Be 衷心祈祷"
PERFORMER "Enya 恩雅"
INDEX 01 30:46:15
TRACK 09 AUDIO
TITLE "Dark Alan 黑暗亚伦"
PERFORMER "Enya 恩雅"
INDEX 00 35:18:41
INDEX 01 35:18:43
TRACK 10 AUDIO
TITLE "The Sally Gardens 莎莉花园"
PERFORMER "Enya 恩雅"
INDEX 01 38:52:17
TRACK 11 AUDIO
TITLE "Summer Snow 夏之雪"
PERFORMER "Enya 恩雅"
INDEX 01 42:54:43
TRACK 12 AUDIO
TITLE "He Moved Through The Fair 他穿越市集"
PERFORMER "Enya 恩雅"
INDEX 01 47:57:69
TRACK 13 AUDIO
TITLE "Heaven 天堂"
PERFORMER "Enya 恩雅"
INDEX 01 51:20:24
TRACK 14 AUDIO
TITLE "Carrickfergus 居尔特民谣"
PERFORMER "Enya 恩雅"
INDEX 01 55:21:05
TRACK 15 AUDIO
TITLE "Love Song 爱之歌"
PERFORMER "Enya 恩雅"
INDEX 00 59:45:00
INDEX 01 59:45:03
这是不错的资源
最近老睡不着,正好当催眠曲~~~
刚刚分享的大包,这个也支持