《犬夜叉原声音乐》(Inuyasha)[音楽编 壱の段][OST1][APE]

《犬夜叉原声音乐》(Inuyasha)[音楽编 壱の段][OST1][APE]
  • 片  名  《犬夜叉原声音乐》(Inuyasha)[音楽编 壱の段][OST1][APE]
  • 简  介  发行时间: 2001年03月28日对白语言: 日语
  • 类  别  动漫
  • 小  类  动漫周边


  • 详细介绍中文名: 犬夜叉原声音乐英文名: Inuyasha版本: [音楽编 壱の段][OST1][APE]发行时间: 2001年03月28日地区: 日本对白语言: 日语简介:
    【动画简介】:
    来自一个神社的少女日暮戈薇,是一位普通的初三学生。15岁生日那天由家中的井经过了时间旅行到了500年前的战国时代,在那里和被封印的半妖——犬夜叉相遇了。犬夜叉,他想要得到四魂之玉而成为完全的妖怪。但是,什么都不知道的戈薇,解开了犬夜叉的封印。接着,戈薇射出的箭命中了四魂之玉,四魂之玉变成碎片飞散了。即使只是碎片也拥有很强的妖力的四魂之玉,不可以落到邪恶的妖怪们手中。最初戈薇受不了粗暴任性的犬夜叉,但是在了解犬夜叉从不将弱者置之不顾的性格后,慢慢对犬夜叉产生了好感。不久,小狐妖七宝、不良法师弥勒、妖怪退治师珊瑚和其同伴云母也加入了。被坚不可摧的羁绊结合在一起的犬夜叉他们为了集齐四魂之玉碎片和成群的妖怪们战斗的旅程开始了。
    【专辑介绍】:
    犬夜叉 音楽編 壱の段
    アニメサントラ
    商品番号: AVCA-14099
    メディア: アルバムCD
    組枚数: 1
    発売日: 2001/03/28
    価格: 3059円(税込)
    アーティスト/ キャスト
    V6 (アーティスト)  松本理恵 (作詞者) 
    渡辺未来 (作曲者)  上野圭市 (編曲者) 
    和田薫 (作曲者)  dream (アーティスト) 
    松室麻衣 (作詞者)  y@suo ohtani (作曲者) 
    菊池圭介 (編曲者) 
    内容
    あの高橋留美子原作のTVアニメーション、待望のサウンドトラック第1弾。戦国時代に生きる半妖の少年・犬夜叉と現代に生きる少女・かごめが織り成す冒険奇譚。TVシリーズの音楽を担当しているのは「金田一少年の事件簿」の和田薫。
    【专辑曲目】:
    1.CHANGE THE WORLD(TV-size)(V6)
    2.宿命の旅へ
    3.サブタイトル
    4.半妖 犬夜叉
    5.隠し井戸から戦国时代へ
    6.妖兄 杀生丸
    7.四魂の玉を狙う魑魅魍魎
    8.牙の剣 鉄砕牙
    9.穷地
    10.妖艶
    11.アイキャッチA
    12.时を越えて かごめ
    13.ドキドキうきうき
    14.がんばれ 北条君
    15.村の一日
    16.四魂の玉を求めて
    17.ノミのじじい 冥加
    18.おすわり
    19.コギツネ妖怪 七宝
    20.不良法师 弥勒
    21.风穴
    22.退治屋 珊瑚
    23.运命と恋心
    24.慕情
    25.アイキャッチB
    26.不穏な気配
    27.邪妖 奈落
    28.袭撃
    29.死魂
    30.悲运の巫女 桔梗
    31.哀歌
    32.哀しみの果てに
    33.かごめと犬夜叉
    34.霊力
    35.邪気
    36.死闘
    37.大反撃
    38.My will(TV-size)(dream)
    【服务器】:Popgo Anime Server ed2k://|server|61.145.112.13|3721|/
    【共享时间】:7*23 除计划关机和断电外一般开机
    负责声明:上传量为档案大小10倍时撤发布级别,保证有源一个月,过期刻盘备份,待贴自然死亡。
  • 《犬夜叉原声音乐》(Inuyasha)[音楽编 壱の段][OST1][APE]_large

精选评论

这个也是.
CATALOG 4988064140992
PERFORMER "和田薫`"
TITLE "[音楽编 壱の段OST1]"
FILE "CDImage.ape" WAVE
TRACK 01 AUDIO
TITLE "CHANGE THE WORLD(TV-size)(V6)"
PERFORMER "和田薫"
ISRC JPB600124101
INDEX 01 00:00:00
REM GENRE Soundtrack
REM DISCID 2f0f0f26
TRACK 02 AUDIO
TITLE "宿命の旅へ"
PERFORMER "和田薫"
ISRC JPB600124102
INDEX 00 01:47:53
INDEX 01 01:50:15
REM GENRE Soundtrack
REM DISCID 2f0f0f26
TRACK 03 AUDIO
TITLE "サブタイトル"
PERFORMER "和田薫"
ISRC JPB600124103
INDEX 00 03:29:08
INDEX 01 03:30:42
REM GENRE Soundtrack
REM DISCID 2f0f0f26
TRACK 04 AUDIO
TITLE "半妖 犬夜叉"
PERFORMER "和田薫"
ISRC JPB600124104
INDEX 00 03:39:18
INDEX 01 03:41:20
REM GENRE Soundtrack
REM DISCID 2f0f0f26
TRACK 05 AUDIO
TITLE "隠し井戸から戦国时代へ"
PERFORMER "和田薫"
ISRC JPB600124105
INDEX 00 04:53:15
INDEX 01 04:55:07
REM GENRE Soundtrack
REM DISCID 2f0f0f26
TRACK 06 AUDIO
TITLE "妖兄 杀生丸"
PERFORMER "和田薫"
ISRC JPB600124106
INDEX 00 07:11:72
INDEX 01 07:14:02
REM GENRE Soundtrack
REM DISCID 2f0f0f26
TRACK 07 AUDIO
TITLE "四魂の玉を狙う魑魅魍魎"
PERFORMER "和田薫"
ISRC JPB600124107
INDEX 00 09:26:25
INDEX 01 09:28:20
REM GENRE Soundtrack
REM DISCID 2f0f0f26
TRACK 08 AUDIO
TITLE "牙の剣 鉄砕牙"
PERFORMER "和田薫"
ISRC JPB600124108
INDEX 00 11:39:70
INDEX 01 11:41:10
REM GENRE Soundtrack
REM DISCID 2f0f0f26
TRACK 09 AUDIO
TITLE "穷地"
PERFORMER "和田薫"
ISRC JPB600124109
INDEX 00 12:39:25
INDEX 01 12:41:30
REM GENRE Soundtrack
REM DISCID 2f0f0f26
TRACK 10 AUDIO
TITLE "妖艶"
PERFORMER "和田薫"
ISRC JPB600124110
INDEX 00 14:03:62
INDEX 01 14:05:52
REM GENRE Soundtrack
REM DISCID 2f0f0f26
TRACK 11 AUDIO
TITLE "アイキャッチA"
PERFORMER "和田薫"
ISRC JPB600124111
INDEX 00 15:02:61
INDEX 01 15:03:57
REM GENRE Soundtrack
REM DISCID 2f0f0f26
TRACK 12 AUDIO
TITLE "时を越えて かごめ"
PERFORMER "和田薫"
ISRC JPB600124112
INDEX 00 15:09:25
INDEX 01 15:12:10
REM GENRE Soundtrack
REM DISCID 2f0f0f26
TRACK 13 AUDIO
TITLE "ドキドキうきうき"
PERFORMER "和田薫"
ISRC JPB600124113
INDEX 00 16:45:25
INDEX 01 16:47:22
REM GENRE Soundtrack
REM DISCID 2f0f0f26
TRACK 14 AUDIO
TITLE "がんばれ!北条君"
PERFORMER "和田薫"
ISRC JPB600124114
INDEX 00 18:06:40
INDEX 01 18:08:00
REM GENRE Soundtrack
REM DISCID 2f0f0f26
TRACK 15 AUDIO
TITLE "村の一日"
PERFORMER "和田薫"
ISRC JPB600124115
INDEX 00 19:40:15
INDEX 01 19:42:12
REM GENRE Soundtrack
REM DISCID 2f0f0f26
TRACK 16 AUDIO
TITLE "四魂の玉を求めて"
PERFORMER "和田薫"
ISRC JPB600124116
INDEX 00 22:52:70
INDEX 01 22:54:70
REM GENRE Soundtrack
REM DISCID 2f0f0f26
TRACK 17 AUDIO
TITLE "ノミのじじい 冥加"
PERFORMER "和田薫"
ISRC JPB600124117
INDEX 00 25:02:25
INDEX 01 25:03:60
REM GENRE Soundtrack
REM DISCID 2f0f0f26
TRACK 18 AUDIO
TITLE "おすわり!"
PERFORMER "和田薫"
ISRC JPB600124118
INDEX 00 26:19:16
INDEX 01 26:20:50
REM GENRE Soundtrack
REM DISCID 2f0f0f26
TRACK 19 AUDIO
TITLE "コギツネ妖怪 七宝"
PERFORMER "和田薫"
ISRC JPB600124119
INDEX 00 28:26:17
INDEX 01 28:27:52
REM GENRE Soundtrack
REM DISCID 2f0f0f26
TRACK 20 AUDIO
TITLE "不良法师 弥勒"
PERFORMER "和田薫"
ISRC JPB600124120
INDEX 00 29:36:28
INDEX 01 29:37:70
REM GENRE Soundtrack
REM DISCID 2f0f0f26
TRACK 21 AUDIO
TITLE "风穴"
PERFORMER "和田薫"
ISRC JPB600124121
INDEX 00 31:00:59
INDEX 01 31:02:15
REM GENRE Soundtrack
REM DISCID 2f0f0f26
TRACK 22 AUDIO
TITLE "退治屋 珊瑚"
PERFORMER "和田薫"
ISRC JPB600124122
INDEX 00 32:59:48
INDEX 01 33:01:45
REM GENRE Soundtrack
REM DISCID 2f0f0f26
TRACK 23 AUDIO
TITLE "运命と恋心"
PERFORMER "和田薫"
ISRC JPB600124123
INDEX 00 36:45:49
INDEX 01 36:47:02
REM GENRE Soundtrack
REM DISCID 2f0f0f26
TRACK 24 AUDIO
TITLE "慕情"
PERFORMER "和田薫"
ISRC JPB600124124
INDEX 00 39:48:59
INDEX 01 39:50:20
REM GENRE Soundtrack
REM DISCID 2f0f0f26
TRACK 25 AUDIO
TITLE "アイキャッチB"
PERFORMER "和田薫"
ISRC JPB600124125
INDEX 00 41:57:47
INDEX 01 41:58:47
REM GENRE Soundtrack
REM DISCID 2f0f0f26
TRACK 26 AUDIO
TITLE "不穏な気配"
PERFORMER "和田薫"
ISRC JPB600124126
INDEX 00 42:06:40
INDEX 01 42:09:37
REM GENRE Soundtrack
REM DISCID 2f0f0f26
TRACK 27 AUDIO
TITLE "邪妖 奈落"
PERFORMER "和田薫"
ISRC JPB600124127
INDEX 00 44:18:05
INDEX 01 44:20:02
REM GENRE Soundtrack
REM DISCID 2f0f0f26
TRACK 28 AUDIO
TITLE "袭撃"
PERFORMER "和田薫"
ISRC JPB600124128
INDEX 00 45:32:24
INDEX 01 45:34:17
REM GENRE Soundtrack
REM DISCID 2f0f0f26
TRACK 29 AUDIO
TITLE "死魂"
PERFORMER "和田薫"
ISRC JPB600124129
INDEX 00 47:54:03
INDEX 01 47:55:35
REM GENRE Soundtrack
REM DISCID 2f0f0f26
TRACK 30 AUDIO
TITLE "悲运の巫女 桔梗"
PERFORMER "和田薫"
ISRC JPB600124130
INDEX 00 49:04:35
INDEX 01 49:06:02
REM GENRE Soundtrack
REM DISCID 2f0f0f26
REM RATING 0
TRACK 31 AUDIO
TITLE "哀歌"
PERFORMER "和田薫"
ISRC JPB600124131
INDEX 00 50:51:48
INDEX 01 50:53:42
REM GENRE Soundtrack
REM DISCID 2f0f0f26
REM RATING 0
TRACK 32 AUDIO
TITLE "哀しみの果てに"
PERFORMER "和田薫"
ISRC JPB600124132
INDEX 00 52:34:35
INDEX 01 52:35:70
REM GENRE Soundtrack
REM DISCID 2f0f0f26
TRACK 33 AUDIO
TITLE "かごめと犬夜叉"
PERFORMER "和田薫"
ISRC JPB600124133
INDEX 00 54:01:06
INDEX 01 54:02:37
REM GENRE Soundtrack
REM DISCID 2f0f0f26
TRACK 34 AUDIO
TITLE "霊力"
PERFORMER "和田薫"
ISRC JPB600124134
INDEX 00 57:23:13
INDEX 01 57:25:42
REM GENRE Soundtrack
REM DISCID 2f0f0f26
TRACK 35 AUDIO
TITLE "邪気"
PERFORMER "和田薫"
ISRC JPB600124135
INDEX 00 59:01:65
INDEX 01 59:02:70
REM GENRE Soundtrack
REM DISCID 2f0f0f26
TRACK 36 AUDIO
TITLE "死闘"
PERFORMER "和田薫"
ISRC JPB600124136
INDEX 00 60:16:34
INDEX 01 60:16:65
REM GENRE Soundtrack
REM DISCID 2f0f0f26
TRACK 37 AUDIO
TITLE "大反撃"
PERFORMER "和田薫"
ISRC JPB600124137
INDEX 00 61:22:59
INDEX 01 61:23:60
REM GENRE Soundtrack
REM DISCID 2f0f0f26
TRACK 38 AUDIO
TITLE "My will(TV-size)(dream)"
PERFORMER "和田薫"
ISRC JPB600124138
INDEX 00 62:36:53
INDEX 01 62:40:50
REM GENRE Soundtrack
REM DISCID 2f0f0f26
这么好的东西居然没人顶?
好忧伤的音乐,很喜欢犬夜叉的三个主角
没有资源啊,大家帮帮忙,下载一会啊,这么好的音乐。。
这资源简直太好了,永远支持楼主,支持无损原声集。
﹃_﹃最近看犬夜叉完结版。。。回来收原声集了
朋友们共享起啊,源好少啊~
这个属于精品,要顶!
谢谢分享。
膜拜……终于找到了!!!