《你不在后丹佛事》(Things.To.Do.In.Denver.When.Youre.Dead)1995.iNTERNAL.DVDRip.XviD-EXViDiNT

《你不在后丹佛事》(Things.To.Do.In.Denver.When.Youre.Dead)1995.iNTERNAL.DVDRip.XviD-EXViDiNT
  • 片  名  《你不在后丹佛事》(Things.To.Do.In.Denver.When.Youre.Dead)1995.iNTERNAL.DVDRip.XviD-EXViDiNT
  • 简  介  Douban1295329:7.2(16 votes)无
  • 类  别  电影
  • 小  类  欧美


  • 详细介绍
    【译  名】你不在后丹佛事 / 五个杀手的传说(港译) / 角头情圣( 台译)
    【片  名】Things to Do in Denver When You&39;The Saint&39;Tiny&1

    剧情简介:
      黑道里混过的吉米在丹佛开录像带出租店,过着平淡的日子。一天出外办事遭到绑架。原来是他以前为之服务的老大要让他去执行一项简单的任务:“吓唬“一下跟老大的儿子谈过恋爱的女孩及其现任男友。老大出的赏金很高,吉米决定接活儿。可恰在此时,真正令吉米心动的女孩达格尼出现了。也许是一心不能二用,老大交代的任务没有完成,形势急转直下,他和伙伴成了老大手下人追杀的目标。初尝情味的吉米决意要自卫,而且要保护好伙伴和所爱的人。这类拳脚冲突加刀枪相见,黑色幽默又伴有浪漫爱情的黑帮影片,之所以一部一部地被拍出来,恐怕是总不缺少观众的缘故。 代码Stats:
    Format: AVI
    Format/Info: Audio Video Interleave
    File size: 1.37 GiB
    Duration: 1h 50mn
    Overall bit rate: 1 770 Kbps
    Writing application: VirtualDubMod 1.5.10.2 (build 2540/release)
    Writing library: VirtualDubMod build 2540/release

    Video
    ID: 0
    Format: MPEG-4 Visual
    Format profile: Advanced Simple@L5
    Format settings, BVOP: Yes
    Format settings, QPel: No
    Format settings, GMC: No warppoints
    Format settings, Matrix: Default (H.263)
    Muxing mode: Packed bitstream
    Codec ID: XVID
    Codec ID/Hint: XviD
    Duration: 1h 50mn
    Bit rate: 1 313 Kbps
    Width: 640 pixels
    Height: 352 pixels
    Display aspect ratio: 16:9
    Frame rate: 25.000 fps
    Color space: YUV
    Chroma subsampling: 4:2:0
    Bit depth: 8 bits
    Scan type: Progressive
    Bits/(Pixel*Frame): 0.233
    Stream size: 1.01 GiB (74%)
    Writing library: XviD 1.2.1 (UTC 2008-12-04)

    Audio
    ID: 1
    Format: AC-3
    Format/Info: Audio Coding 3
    Mode extension: CM (complete main)
    Codec ID: 2000
    Duration: 1h 50mn
    Bit rate mode: Constant
    Bit rate: 448 Kbps
    Channel(s): 6 channels
    Channel positions: Front: L C R, Side: L R, LFE
    Sampling rate: 48.0 KHz
    Bit depth: 16 bits
    Stream size: 355 MiB (25%)
    Alignment: Split accross interleaves
    Interleave, duration: 40 ms (1.00 video frame)
    Interleave, preload duration: 500 ms

    Release notes:
    Enjoy!

    Looking for:
    75TB+ Archives
    DUTCH/FLEMiSH Archives

    Greets: CRBS EPiSODE FiCO FLS iLS KLASSiGER LiPSYNC MADE NODLABS RUNNER TNAN

    ASCII DONE BY XX^NFO 2oo9


  • 《你不在后丹佛事》(Things.To.Do.In.Denver.When.Youre.Dead)1995.iNTERNAL.DVDRip.XviD-EXViDiNT_large

精选评论

还没人评论呢^^~赶紧抢沙发吧!

相关资源