《AQUA PLUS音乐收藏集》(AQUA PLUS VOCAL COLLECTION Vol.4)[VOCAL COLLECTION Vol.01~04][Leaf][含Booklet][TTA+APE]

《AQUA PLUS音乐收藏集》(AQUA PLUS VOCAL COLLECTION Vol.4)[VOCAL COLLECTION Vol.01~04][Leaf][含Booklet][TTA+APE]
  • 片  名  《AQUA PLUS音乐收藏集》(AQUA PLUS VOCAL COLLECTION Vol.4)[VOCAL COLLECTION Vol.01~04][Leaf][含Booklet][TTA+APE]
  • 简  介  发行时间: 2006年08月23日对白语言: 日语
  • 类  别  动漫
  • 小  类  动漫周边


  • 详细介绍中文名: AQUA PLUS音乐收藏集英文名: AQUA PLUS VOCAL COLLECTION Vol.4版本: [VOCAL COLLECTION Vol.01~04][Leaf][含Booklet][TTA+APE]发行时间: 2006年08月23日地区: 日本对白语言: 日语简介:
    【内容介绍】
    以上四张专辑是由著名的美少女GALGAME公司Leaf社所发行的音乐精选集,专辑中收录了Leaf社人气作品《To Heart Remember my memories》(动画版,别名:心之彼端2)、《Comic Party Revolution》(动画版,别名:漫画同人会-革命)、移植自PC版的PS2用游戏《ToHeart 2》以及该设的其它一些PC版游戏作品等相关的主题曲与插曲,如果是该公司作品粉丝的话就不要错过啦,友情推荐一下! ^ ^a
    【专辑介绍】
    AQUA PLUS VOCAL COLLECTION Vol.4
    元田恵美、中山爱梨沙、他
    ★ 商品番号: KICA-1424
    ★ メディア: CD
    ★ 组枚数: 1
    ★ 発売日: 2006/08/23
    ★ 価格: 3000円(税込)
    【アーティスト/ キャスト】
    中山爱梨沙 (アーティスト)  须谷尚子 (作词者) 
    中上和英 (作曲者)  豆田将 (编曲者) 
    草壁优季 (アーティスト)  衣笠道雄 (编曲者) 
    AKKO (アーティスト)  下川直哉 (作曲者) 
    元田恵美 (アーティスト)  牛岛弥美 (作词者) 
    谷咲ナオミ (アーティスト)  ジョー・リノイエ (作词者) 
    池田春菜 (アーティスト)  松冈纯也 (编曲者) 
    竹谷昌代 (作词者)  石川真也 (作曲者) 
    Suara (アーティスト)  未海 (作词者) 
     
    「内容」
    ファン待望 Leaf ボーカルコレクションシリーズ第4弾 大人気TVアニメ「ToHeart Remember my memories」、「こみっくパーティーRevolution」、PS2版「ToHeart 2」などのOP EDテーマを中心に全10曲を収録。
    【专辑曲目】
    1. Heart To Heart
    2. 星の歌
    3. ありがとう
    4. Peace Of Life
    5. 风に消えた言叶
    6. 大好きだよ(Into Your Heart)
    7. それぞれの未来へ
    8. Fly
    9. Best Smile
    10. 一绪に暮らそう
    11. MOON PHASE
    ------------------------------------------------------------------------------------
    【专辑介绍】
    AQUA PLUS VOCAL COLLECTION Vol.3
    元田恵美、中山愛梨沙、他
    ★ 商品番号: KICA-1423
    ★ メディア: CD
    ★ 组枚数: 1
    ★ 発売日: 2006/08/23
    ★ 価格: 2000円(税込)
    【アーティスト/ キャスト】
    元田恵美 (アーティスト)  豆田将 (作曲者) 
    美崎しのぶ (アーティスト)  中山愛梨沙 (アーティスト) 
    須谷尚子 (作詞者)  下川直哉 (作曲者) 
    松岡純也 (編曲者)  池田春菜 (アーティスト) 
    石川真也 (作曲者)  中上和英 (作曲者) 
    AKKO (アーティスト)  BRENDA (アーティスト)  
     
    「内容」
    美少女系PCゲームのカリスマブランド Leaf のボーカルコレクションシリーズのリセールス盤。2003年にアクアプラスからリリースされた作品。
    【专辑曲目】
    1. 香る風
    2. 旅の途中で
    3. ホントのさよなら
    4. Shining Days
    5. Routes
    6. E JUNK
    7. あなたを想いたい
    8. 君をのせて
    9. I hope so...
    10. ヒトリ
    11. POWDER SNOW
    ------------------------------------------------------------------------------------
    【专辑介绍】
    AQUA PLUS VOCAL COLLECTION Vol.2
    元田恵美、中山愛梨沙、他
    ★ 商品番号: KICA-1422
    ★ メディア: CD
    ★ 组枚数: 1
    ★ 発売日: 2006/08/23
    ★ 価格: 2000円(税込)
    【アーティスト/ キャスト】
    菅原露見 (アーティスト)  須谷尚子 (作詞者) 
    米村高弘 (作曲者)  AKKO (
  • 《AQUA PLUS音乐收藏集》(AQUA PLUS VOCAL COLLECTION Vol.4)[VOCAL COLLECTION Vol.01~04][Leaf][含Booklet][TTA+APE]_large

精选评论

怎样把APE文件分成一首一首歌呀?
thanks!
AQUA PLUS VOCAL COLLECTION Vol.1 这个也有BK?
下完了,除了4以外没看到一个有bk的……
可惜cue文件好像是乱码?不知能否提供正确的cue文件?

好听,支持!
补下源好吗??楼主!!~!
没有歌词么?好可惜啊……
我来贴个分轨,vol1的:

PERFORMER "F.I.X.Records/Leaf/AQUAPLUS"
TITLE "AQUA PLUS VOCAL COLLECTION Vol.1"
FILE "CDImage.ape" WAVE
TRACK 01 AUDIO
TITLE "Brand-New Heart"
PERFORMER "中司雅美"
INDEX 01 00:00:00
TRACK 02 AUDIO
TITLE "それぞれの未来へ"
PERFORMER "緒方理奈"
INDEX 00 04:35:22
INDEX 01 04:37:12
TRACK 03 AUDIO
TITLE "SOUND OF DESTINY"
PERFORMER "緒方理奈"
INDEX 00 09:19:62
INDEX 01 09:20:62
TRACK 04 AUDIO
TITLE "あなたの横顔"
PERFORMER "森川由綺"
INDEX 00 13:35:67
INDEX 01 13:37:30
TRACK 05 AUDIO
TITLE "POWDER SNOW"
PERFORMER "AKKO"
INDEX 00 17:55:60
INDEX 01 17:57:25
TRACK 06 AUDIO
TITLE "WHITE ALBUM"
PERFORMER "AKKO"
INDEX 00 23:08:45
INDEX 01 23:10:02
TRACK 07 AUDIO
TITLE "As time goes by"
PERFORMER "AKKO"
INDEX 00 27:46:07
INDEX 01 27:47:45
TRACK 08 AUDIO
TITLE "恋わずらい"
PERFORMER "AKKO"
INDEX 00 32:03:70
INDEX 01 32:05:20
TRACK 09 AUDIO
TITLE "あたらしい予感"
PERFORMER "森川由綺"
INDEX 00 36:22:67
INDEX 01 36:24:17
TRACK 10 AUDIO
TITLE "Feeling Heart"
PERFORMER "AKKO"
INDEX 00 41:01:37
INDEX 01 41:03:20
继续,vol2:

REM DATE 2003-09-26
PERFORMER "F.I.X.Records乛Leaf乛AQUAPLUS"
TITLE "AQUAPLUS VOCAL COLLECTION Vol.2"
FILE "LEAF VOCAL COLLECTION VOL.2.ape" WAVE
TRACK 01 AUDIO
TITLE "Littlestone"
PERFORMER "菅原露見"
INDEX 01 00:00:00
TRACK 02 AUDIO
TITLE "歩み"
PERFORMER "AKKO"
INDEX 00 04:19:71
INDEX 01 04:20:72
TRACK 03 AUDIO
TITLE "君のままで"
PERFORMER "元田恵美"
INDEX 00 08:38:26
INDEX 01 08:39:27
TRACK 04 AUDIO
TITLE "笑顔を見せて"
PERFORMER "元田恵美"
INDEX 00 12:57:43
INDEX 01 12:58:44
TRACK 05 AUDIO
TITLE "風はいつも春一番"
PERFORMER "中山愛梨沙"
INDEX 00 17:55:01
INDEX 01 17:56:02
TRACK 06 AUDIO
TITLE "形のない街を目指して"
PERFORMER "Kaya"
INDEX 00 22:02:00
INDEX 01 22:03:01
TRACK 07 AUDIO
TITLE "旅人"
PERFORMER "Kaya"
INDEX 00 26:28:56
INDEX 01 26:29:57
TRACK 08 AUDIO
TITLE "心(SORA)"
PERFORMER "Kaya"
INDEX 00 30:42:32
INDEX 01 30:43:32
TRACK 09 AUDIO
TITLE "運命-SADAME-"
PERFORMER "元田恵美"
INDEX 00 37:03:19
INDEX 01 37:05:19
TRACK 10 AUDIO
TITLE "永久に"
PERFORMER "元田恵美"
INDEX 00 41:24:43
INDEX 01 41:25:44
TRACK 11 AUDIO
TITLE "I Believe~あたらしい予感~"
PERFORMER "BRENDA"
INDEX 00 46:45:43
INDEX 01 46:46:44
还有一个,vol3:

TITLE "AQUAPLUS VOCAL COLLECTION Vol.3"
FILE "CDImage.ape" WAVE
TRACK 01 AUDIO
TITLE "香る風"
PERFORMER "元田恵美"
ISRC JPKI00505086
INDEX 01 00:00:00
TRACK 02 AUDIO
TITLE "旅の途中で"
PERFORMER "美崎しのぶ"
ISRC JPKI00408826
INDEX 00 03:57:27
INDEX 01 03:59:27
TRACK 03 AUDIO
TITLE "ホントのさよなら"
PERFORMER "元田恵美"
ISRC JPKI00605333
INDEX 00 07:59:53
INDEX 01 08:01:53
TRACK 04 AUDIO
TITLE "Shining Days"
PERFORMER "元田恵美"
ISRC JPKI00605371
INDEX 00 12:39:43
INDEX 01 12:41:43
TRACK 05 AUDIO
TITLE "Routes"
PERFORMER "中山愛梨沙"
ISRC JPKI00605372
INDEX 00 17:10:03
INDEX 01 17:12:03
TRACK 06 AUDIO
TITLE "E JUNK"
PERFORMER "美崎しのぶ"
ISRC JPKI00605373
INDEX 00 21:15:73
INDEX 01 21:17:73
TRACK 07 AUDIO
TITLE " あなたを想いたい"
PERFORMER "池田春菜"
ISRC JPKI00605374
INDEX 00 26:16:43
INDEX 01 26:18:43
TRACK 08 AUDIO
TITLE "君をのせて "
PERFORMER "中山愛梨沙"
ISRC JPKI00605375
INDEX 00 31:28:16
INDEX 01 31:30:16
TRACK 09 AUDIO
TITLE " I hope so..."
PERFORMER "池田春菜"
ISRC JPKI00605376
INDEX 00 35:26:62
INDEX 01 35:28:62
TRACK 10 AUDIO
TITLE "ヒトリ"
PERFORMER "AKKO"
ISRC JPKI00605377
INDEX 00 40:29:53
INDEX 01 40:31:53
TRACK 11 AUDIO
TITLE "POWDER SNOW"
PERFORMER "BRENDA"
ISRC JPKI00605378
INDEX 00 45:05:45
INDEX 01 45:07:45
相见恨晚 请楼主补蓝 谢谢
请问楼主有没有vol.5?KICA-1440这个
为正义而路过,已有,纯支持