Shlomo Mintz & Claudio Abbado & Chicago Symphony Orchestra -(Serge Prokofiev -The Violin Concertos)[APE]

Shlomo Mintz & Claudio Abbado & Chicago Symphony Orchestra -(Serge Prokofiev -The Violin Concertos)[APE]
  • 片  名  Shlomo Mintz & Claudio Abbado & Chicago Symphony Orchestra -(Serge Prokofiev -The Violin Concertos)[APE]
  • 简  介  古典类型: 协奏曲发行时间: 1990年10月25日
  • 类  别  音乐
  • 小  类  古典音乐


  • 详细介绍简介: 专辑介绍:
    Shlomo Mintz演奏的Prokofiev使他的名声家喻户晓.他演奏的享有盛名的奏鸣曲由于加入了他对prokofiev的习语的深度理解,而被人们高度赞扬.这成为他的 制胜之道 ,在他演奏的协奏曲中可以被大量的听到.在第一首协奏曲的第一乐章的开头和结尾这里,他如此完美的捕捉到了这样的情绪-渴望,神秘,而又动情.那一下子安静下来的时刻变得有魔力般迷人.高潮便随着这样优越的自信(并不像perlman在EMI的录音一样,感觉仿佛要压倒一切)到来.第二乐章同时又是辉煌的.他的阐释充满想象力和反复无常的幻想.随着他的演奏带来的新鲜活力和魅力令人无法抵挡.Abbado和芝加哥交响乐团起到的作用已不只是一般的为这位独奏大师调协音色了,他们更提供的是出色完美的伴奏.第二首协奏曲同样也很好,虽然没有第一首那么突出,但在结尾处仍充者华彩和炫耀.这份数字录音是DG最好的版本之一.(The digital recording is one of the best to have emerged from DG, with full of bloom and space around the orchestra which suits the musicians' approach. 后半句实在不会翻...也请大家指教~)
    关于演奏者
    Shlomo Mintz 敏茨(1957.10.30- ) (出生于莫斯科)
    以色列小提琴家,从小随费赫尔学琴,11岁和梅塔、以色列爱乐乐团合作举行首次音乐会.斯特恩欣赏其才华,推荐他到朱利亚德音乐学院从迪蕾学琴,1973年在卡内基音乐厅举办独奏音乐会,1976年去欧洲巡回演出,获轰动.敏茨的演奏注重力度变化,音色极漂亮,他最出色的作品是阐释普罗科菲耶夫的协奏曲与奏鸣曲,在高超的技巧中显示着力度.他演奏两首门德尔松的奏鸣曲与巴赫的《6首独奏奏鸣曲和帕蒂塔》,也获佳评.

  • Shlomo Mintz & Claudio Abbado & Chicago Symphony Orchestra -(Serge Prokofiev -The Violin Concertos)[APE]_large

精选评论

大沙发 支持楼主
小板凳我也拿来做一下 再次感谢楼主
那我就是跪地板了~~~~
顶楼主~~~
这版数码录音是DG公司发行的最佳录音之一,乐队的音响充满了动感和空间,很好地配合了音乐家的诠释
俺瞎抓的,感谢楼主


啊呀~这可不是最后一句的翻译嘛~!!!!感谢指教!!!!!



是不是可以翻译为:这是DG公司发行的最佳数码录音之一,乐队的演奏生机勃勃,空间感十足,恰如其分的诠释了作曲家的意图。


很有道理哦~我就是对那个bloom没有任何把握~///....


那只有趴键盘的份了,哈哈。
祝楼主身体健康!感谢楼主的无私奉献!感谢楼主的辛勤劳动!感谢做源分流的朋友们!
PERFORMER "Shlomo Mintz & Claudio Abbado & Chicago Symphony Orchestra"
TITLE "Shlomo Mintz & Claudio Abbado & Chicago Symphony Orchestra -(Serge Prokofiev -The Violin Concertos)"
FILE "Shlomo.Mintz.-.[-Serge.Prokofiev-The.Violin.Concerto].专辑.(ape).ape" WAVE
TRACK 01 AUDIO
TITLE "Violin Concerto No. 1 in D major, Op. 19: I. Andantino"
PERFORMER "Shlomo Mintz"
INDEX 00 00:00:00
INDEX 01 00:00:33
TRACK 02 AUDIO
TITLE "Violin Concerto No. 1 in D major, Op. 19: II. Scherzo. Vivacissimo"
PERFORMER "Shlomo Mintz"
INDEX 00 09:57:28
INDEX 01 10:01:33
TRACK 03 AUDIO
TITLE "Violin Concerto No. 1 in D major, Op. 19: III. Finale. Moderato"
PERFORMER "Shlomo Mintz"
INDEX 00 13:51:52
INDEX 01 13:56:48
TRACK 04 AUDIO
TITLE "Violin Concerto No. 2 in G minor, Op. 63: Allegro Moderato"
PERFORMER "Shlomo Mintz"
INDEX 00 22:03:24
INDEX 01 22:15:35
TRACK 05 AUDIO
TITLE "Violin Concerto No. 2 in G minor, Op. 63: Andante Assai"
PERFORMER "Shlomo Mintz"
INDEX 00 32:56:37
INDEX 01 33:02:28
TRACK 06 AUDIO
TITLE "Violin Concerto No. 2 in G minor, Op. 63: Allegro Ben Marcato"
PERFORMER "Shlomo Mintz"
INDEX 00 42:59:66
INDEX 01 43:00:45
下载后CUE文件是乱的,根据楼主提供资料补充的。
先听听看啦,非常感谢