张信哲 -《挚爱》[APE]

张信哲 -《挚爱》[APE]
  • 片  名  张信哲 -《挚爱》[APE]
  • 简  介  音乐风格: 流行发行时间: 1998年07月01日地区: 台湾语言: 普通话
  • 类  别  音乐
  • 小  类  华语音乐


  • 详细介绍专辑中文名: 挚爱歌手: 张信哲音乐风格: 流行资源格式: APE发行时间: 1998年07月01日地区: 台湾语言: 普通话简介: 专辑介绍:
    用情、受罪、背叛、多想、快乐、放手等6首超实力主打歌,全世界华人最挚爱的声音。
    张信哲继95宽容、96梦想,二张亚洲百万专辑后,再度卫冕亚洲销售王之风云力作。
    挚爱的歌,献给挚爱的人,
    只有张信哲,给你十首挚爱不渝的情歌。
    如果二十年后,我们再见面,不知道那时候我在做什么?
    也许到了那种年纪 我已什么都不能做
    只是每天安静的坐着 沉缅于回忆中
    回忆曾经不停的追求
    追求爱与被爱
    却总是与渴望擦肩而过
    然后独自面对
    无法适从的汹涌与压抑
    曾经以为紧紧握在手中的爱情是幸福
    放手之后才发现只有遗憾
    对爱 我们从来不懂如何取舍
    总是先浪掷着青春
    再回头往那人山人海之中
    寻找那一去不回的身影
    如果二十年后 我们再见面
    不知道那时侯你在做什么?
    会不会和我一样
    让自己整天侵在过去的音乐里
    一个人 一颗心
    舔舐着久久不敢碰触的伤口
    回忆那已经错过 却从不曾珍惜的
    生命中最真挚的爱
    如果二十年后 我们能再见面……
    用情:张信哲、薜思铭、陈家丽,联手打造流行歌曲新格局,精彩结合老歌“我想忘了你”,全省电台点播冠军。
    受罪:张信哲、薜思铭、王中言“情歌金三角”全新代表作,缠绵悱悯媲美“不要对他说”,全国歌迷票选第一名。
    背叛:张信哲首度自制、自写之惊艳歌坛代表作,成功跨出全能艺人的一大步。
    多想:张信哲、Dick Lee、姚谦首次合作,不一样的情歌风情,行露流水的唱腔,展现清朗自在的声音魅力。
    快乐:金曲歌王张信哲与香港作词才子林夕,联手营造今年最扣人心扉的抒情佳作,“张氏情歌”魅力重现。
    放手:今年最具震撼力的情歌,强度十足的高音技巧,张信哲唱出爱情最痛的激烈表情。
    都市怀旧风格的专辑,也许初听感觉一般,但细听才会发现这张专辑的内涵所在,尤其适合在安静的环境里品位。专辑充满了怀旧的成分,歌曲也多为慢歌,听完歌曲也许会让你想起很多
    过去的事情……很不错的另类阿哲歌曲作品……
    1997年初,阿哲在科艺百代最后的日子里推出了《挚爱》专辑,这张专辑不仅“继承”了阿哲除英语专辑外的一个特点———以两个字作专辑名称,还特意把全部歌曲名也设计成两个字(像王菲等歌手也尝试过)。
    《挚爱》专辑许多人初听起来都有别扭的感觉,但听完了之后又觉得十分舒服,因为专辑第一次引入外国的摇滚乐队为阿哲的歌曲配乐,当然效果十分特别。这张专辑的特别风格在之前或之后的专辑里再没有出现过。
    《用情》一曲的 MTV 也是本专辑的一大特色,先是久未重逢的恋人一个惊喜且煽情的见面,然后是年少时风情的回忆,最后是年老的温情展望。浪漫的情节,即使拍成电视剧也是引人入胜,阿哲爸爸的友情演出还成为 MTV 的另一亮点。
  • 张信哲 -《挚爱》[APE]_large

精选评论

没有cue啊.
自己写了一个,测试能用,分享给大家

PERFORMER "张信哲"
TITLE "思念"
FILE "张信哲.-.[挚爱].专辑.(APE).ape" WAVE
TRACK 01 AUDIO
TITLE "用情"
PERFORMER "张信哲"
INDEX 01 00:00:00
TRACK 02 AUDIO
TITLE "背叛"
PERFORMER "张信哲"
INDEX 00 05:08:00
INDEX 01 05:08:05
TRACK 03 AUDIO
TITLE "多想"
PERFORMER "张信哲"
INDEX 01 09:00:95
TRACK 04 AUDIO
TITLE "Good Love"
PERFORMER "张信哲"
INDEX 01 13:57:00
TRACK 05 AUDIO
TITLE "放手"
PERFORMER "张信哲"
INDEX 00 18:42:00
INDEX 01 18:42:40
TRACK 06 AUDIO
TITLE "受罪"
PERFORMER "张信哲"
INDEX 00 22:34:00
INDEX 01 22:34:25
TRACK 07 AUDIO
TITLE "改变"
PERFORMER "张信哲"
INDEX 00 27:43:00
INDEX 01 27:43:25
TRACK 08 AUDIO
TITLE "等你"
PERFORMER "张信哲"
INDEX 00 32:18:00
INDEX 01 32:18:10
TRACK 09 AUDIO
TITLE "快乐"
PERFORMER "张信哲"
INDEX 00 36:55:04
多谢楼上,共享精神大家有啊 !!!!
REM GENRE Pop
REM DATE 1997
PERFORMER "张信哲"
TITLE "挚爱"
FILE "张信哲.-.[挚爱].专辑.(APE).ape" WAVE
TRACK 01 AUDIO
TITLE "用情"
INDEX 01 00:00:00
TRACK 02 AUDIO
TITLE "背叛"
INDEX 01 05:08:08
TRACK 03 AUDIO
TITLE "多想"
INDEX 01 09:01:45
TRACK 04 AUDIO
TITLE "Good Love"
INDEX 01 13:59:07
TRACK 05 AUDIO
TITLE "放手"
INDEX 01 18:42:14
TRACK 06 AUDIO
TITLE "受罪"
INDEX 01 22:35:11
TRACK 07 AUDIO
TITLE "改变"
INDEX 01 27:43:43
TRACK 08 AUDIO
TITLE "等你"
INDEX 01 32:19:39
TRACK 09 AUDIO
TITLE "快乐"
INDEX 01 36:56:00
TRACK 10 AUDIO
TITLE "游戏"
INDEX 01 40:46:10
感谢楼主供源~

感谢楼上朋友提供CUE~

哲谜请加QQ:4682902交流~
感谢楼上的朋友提供CUE
PERFORMER "张信哲"
TITLE "挚爱"
FILE "张信哲.-.[挚爱].专辑.(APE).ape" WAVE
TRACK 01 AUDIO
TITLE "用情"
INDEX 01 00:00:00
TRACK 02 AUDIO
TITLE "背叛"
INDEX 01 05:08:08
TRACK 03 AUDIO
TITLE "多想"
INDEX 01 09:01:45
TRACK 04 AUDIO
TITLE "Good Love"
INDEX 01 13:59:07
TRACK 05 AUDIO
TITLE "放手"
INDEX 01 18:42:14
TRACK 06 AUDIO
TITLE "受罪"
INDEX 01 22:35:11
TRACK 07 AUDIO
TITLE "改变"
INDEX 01 27:43:43
TRACK 08 AUDIO
TITLE "等你"
INDEX 01 32:19:39
TRACK 09 AUDIO
TITLE "快乐"
INDEX 01 36:56:00
TRACK 10 AUDIO
TITLE "游戏"
INDEX 01 40:46:10
哪个CUE才是对的呢?
<多想>有问题啊
谢谢楼主和大家,哈哈