Gustav Leonhardt -《法国大键琴作品选集》(Masterpieces of French Harpsichord Music)DHM[Flac]

Gustav Leonhardt -《法国大键琴作品选集》(Masterpieces of French Harpsichord Music)DHM[Flac]
  • 片  名  Gustav Leonhardt -《法国大键琴作品选集》(Masterpieces of French Harpsichord Music)DHM[Flac]
  • 简  介  发行时间: 1991年
  • 类  别  音乐
  • 小  类  古典音乐


  • 详细介绍专辑英文名: Masterpieces of French Harpsichord Music专辑中文名: 法国大键琴作品选集别名: Leonhardt plays Rameau LeRoux Royer Duphly艺术家: Gustav Leonhardt版本: DHM[Flac]发行时间: 1991年地区: 法国简介:
    作曲:Rameau, Le Roux, Royer, Duphly
    演奏:Gustav Leonhardt(harpsichord)
    发行公司:deutsche harmonia mundi
    资源出处:EMULE搜索
    专辑介绍:
    莱昂哈特(Leonhardt,1928-),羽管键琴家、管风琴家和指挥家。1928年生于荷兰,早年在瑞士巴塞尔圣歌学院从师于爱德华.穆勒,后来在维也纳学习音乐理论,并成为维也纳音乐学院的羽管键琴教授,80年代先后获达拉斯大学、阿姆斯特丹大学和哈佛大学荣誉博士称号。1980年荣获伊拉兹马斯大奖。自1954年起,担任阿姆斯特丹音乐学院教授以及当地着名的Nieuwe Kerk教堂管风琴手。莱昂哈特以荷兰为大本营,积极投身“古乐运动”,鼓舞、影响并且培养了整整一代年轻的古乐艺术家,包括古乐键盘家和管风琴家Bob van Asperen,横笛家、录音师Barthold Kuijken,大提琴家Anner Bylsma,并最终将荷兰发展成为“古乐运动”的重要中心。
    Emule搜索,分轨,无图,文件为fla格式,等同于flac格式,感谢原发布者
  • Gustav Leonhardt -《法国大键琴作品选集》(Masterpieces of French Harpsichord Music)DHM[Flac]_large

精选评论

请问专辑里有Rameau LeRoux Royer Duphly的介绍吗?能上传吗?真是非常感谢了!
感谢楼主!
感谢楼主供源!!
FILE "法国大键琴作品选集.flac" WAVE
TRACK 01 AUDIO
TITLE "Les tendres plaintes"
PERFORMER "拉摩"
REM REPLAYGAIN_TRACK_GAIN -0.7 dB
REM REPLAYGAIN_TRACK_PEAK 0.718292
INDEX 01 00:00:00
TRACK 02 AUDIO
TITLE "La Folette"
PERFORMER "拉摩"
REM REPLAYGAIN_TRACK_GAIN 0.93 dB
REM REPLAYGAIN_TRACK_PEAK 0.607574
INDEX 01 03:10:12
TRACK 03 AUDIO
TITLE "L'entretien des Muses"
PERFORMER "拉摩"
REM REPLAYGAIN_TRACK_GAIN -1.32 dB
REM REPLAYGAIN_TRACK_PEAK 0.882538
INDEX 01 04:37:46
TRACK 04 AUDIO
TITLE "Les Tourbillons"
PERFORMER "拉摩"
REM REPLAYGAIN_TRACK_GAIN -0.1 dB
REM REPLAYGAIN_TRACK_PEAK 0.690887
INDEX 01 10:03:53
TRACK 05 AUDIO
TITLE "Menuets"
PERFORMER "拉摩"
REM REPLAYGAIN_TRACK_GAIN 0.68 dB
REM REPLAYGAIN_TRACK_PEAK 0.644409
INDEX 01 11:59:40
TRACK 06 AUDIO
TITLE "Sarabande"
PERFORMER "拉摩"
INDEX 01 14:44:10
TRACK 07 AUDIO
TITLE "L'Enharmonique"
PERFORMER "拉摩"
INDEX 01 17:22:11
TRACK 08 AUDIO
TITLE " siote en fa majeur Prelude"
PERFORMER "加斯帕勒鲁"
INDEX 01 23:20:54
TRACK 09 AUDIO
TITLE "Allemande"
PERFORMER "加斯帕勒鲁"
INDEX 01 24:42:24
TRACK 10 AUDIO
TITLE "Courante "
REM REPLAYGAIN_TRACK_GAIN -0.07 dB
REM REPLAYGAIN_TRACK_PEAK 0.581512
INDEX 01 27:47:72
TRACK 11 AUDIO
TITLE "Menuet"
PERFORMER "加斯帕勒鲁"
INDEX 01 29:16:62
TRACK 12 AUDIO
TITLE "Chaconne"
PERFORMER "加斯帕勒鲁"
INDEX 01 30:12:32
TRACK 13 AUDIO
TITLE "Les tendres sentiments"
PERFORMER "约瑟夫尼古拉罗耶潘克拉斯"
INDEX 01 34:02:28
TRACK 14 AUDIO
TITLE " La Majestueuse"
PERFORMER "约瑟夫尼古拉罗耶潘克拉斯"
INDEX 01 38:58:54
TRACK 15 AUDIO
TITLE "La Sensible"
PERFORMER "约瑟夫尼古拉罗耶潘克拉斯"
INDEX 01 41:52:02
TRACK 16 AUDIO
TITLE "Courante do mineur (La Boucon)"
PERFORMER "雅克Duphly"
INDEX 01 45:52:46
TRACK 17 AUDIO
TITLE " Menuets Do mineur "
PERFORMER "雅克Duphly"
INDEX 01 51:24:46
TRACK 18 AUDIO
TITLE " La Du Buq"
PERFORMER "雅克Duphly"
INDEX 01 54:52:41
TRACK 19 AUDIO
TITLE " Les Colombes, Rondeau"
PERFORMER "雅克Duphly"
INDEX 01 58:47:18
TRACK 20 AUDIO
TITLE "La De Vaucanson"
PERFORMER "雅克Duphly"
INDEX 01 62:38:15
TRACK 21 AUDIO
TITLE "La Pothouin, Rondeau "
PERFORMER "雅克Duphly"
INDEX 01 65:11:62
平诺克指挥英国音乐会室内乐乐团演奏巴赫羽管键琴协奏曲