梁咏琪 -《Funny Face》[APE]

梁咏琪 -《Funny Face》[APE]
  • 片  名  梁咏琪 -《Funny Face》[APE]
  • 简  介  音乐风格: 流行发行时间: 2002年12月地区: 香港语言: 粤语
  • 类  别  音乐
  • 小  类  华语音乐


  • 详细介绍专辑中文名: Funny Face歌手: 梁咏琪音乐风格: 流行资源格式: APE发行时间: 2002年12月地区: 香港语言: 粤语简介: 专辑介绍:
    梁咏琪终于荣登专业创作人之列!她早前为李克勤之作《高妹》,备受好评;于是Gigi在这张《Funny face》大碟中,为此曲谱上全新歌词,并亲身演绎新作《高妹正传》。大家当然不可错过此歌的Winter Mix版本呢!另一首主打歌‘伤心寻回犬’亦是2002年圣诞情歌首选!
  • 梁咏琪 -《Funny Face》[APE]_large

精选评论

谢谢分享,支持支持!期待无损的!
喜欢。。。
强烈召唤无损!
一楼与三楼,言论奇怪?
不是啦,本来lz发布的是mp3资源。。。现在更新成无损了,感谢!

lz能否把 cue文件也发一下?

以前在91ting下过一个无损,可是cue文件怎么编辑也不能用foobar
看到列表。。。。
这个真没听过啊。有时间再下载。
买了美卡的引进版
贴下cue

PERFORMER "梁咏琪"
TITLE "Funny Face"
FILE "Funny Face.ape" WAVE
TRACK 01 AUDIO
TITLE "高妹正传"
INDEX 01 00:00:00
TRACK 02 AUDIO
TITLE "Funny Face"
INDEX 00 03:36:34
INDEX 01 03:36:55
TRACK 03 AUDIO
TITLE "伤心寻回犬"
INDEX 00 06:44:33
INDEX 01 06:47:36
TRACK 04 AUDIO
TITLE "两生花"
INDEX 00 10:03:31
INDEX 01 10:07:07
TRACK 05 AUDIO
TITLE "人间之最"
INDEX 00 13:37:68
INDEX 01 13:40:60
TRACK 06 AUDIO
TITLE "咖啡伴侣"
INDEX 00 17:12:20
INDEX 01 17:12:66
TRACK 07 AUDIO
TITLE "分手礼"
INDEX 00 20:49:54
INDEX 01 20:50:31
TRACK 08 AUDIO
TITLE "雪花"
INDEX 00 24:12:14
INDEX 01 24:12:35
TRACK 09 AUDIO
TITLE "哈哈笑"
INDEX 00 28:09:38
INDEX 01 28:12:05
TRACK 10 AUDIO
TITLE "帝凡尼早餐"
INDEX 00 31:47:43
INDEX 01 31:49:20
TRACK 11 AUDIO
TITLE "高妹正传-Winter Mix "
REM REPLAYGAIN_TRACK_GAIN +0.00 dB
REM REPLAYGAIN_TRACK_PEAK 0.000000
INDEX 00 35:08:67
INDEX 01 35:09:30

PERFORMER "梁咏琪"
TITLE "Funny Face"
FILE "梁咏琪《Funny Face》专辑.ape" WAVE
TRACK 01 AUDIO
TITLE "高妹正传"
PERFORMER "梁咏琪"
INDEX 01 00:00:00
TRACK 02 AUDIO
TITLE "Funny Face"
PERFORMER "梁咏琪"
INDEX 00 03:36:34
INDEX 01 03:36:55
TRACK 03 AUDIO
TITLE "伤心寻回犬"
PERFORMER "梁咏琪"
INDEX 00 06:44:33
INDEX 01 06:47:36
TRACK 04 AUDIO
TITLE "两生花"
PERFORMER "梁咏琪"
INDEX 00 10:03:31
INDEX 01 10:07:07
TRACK 05 AUDIO
TITLE "人间之最"
PERFORMER "梁咏琪"
INDEX 00 13:37:68
INDEX 01 13:40:60
TRACK 06 AUDIO
TITLE "咖啡伴侣"
PERFORMER "梁咏琪"
INDEX 00 17:12:20
INDEX 01 17:12:66
TRACK 07 AUDIO
TITLE "分手礼"
PERFORMER "梁咏琪"
INDEX 00 20:49:54
INDEX 01 20:50:31
TRACK 08 AUDIO
TITLE "雪花"
PERFORMER "梁咏琪"
INDEX 00 24:12:14
INDEX 01 24:12:35
TRACK 09 AUDIO
TITLE "哈哈笑"
PERFORMER "梁咏琪"
INDEX 00 28:09:38
INDEX 01 28:12:05
TRACK 10 AUDIO
TITLE "帝凡尼早餐"
PERFORMER "梁咏琪"
INDEX 00 31:47:43
INDEX 01 31:49:20
TRACK 11 AUDIO
TITLE "高妹正传-Winter Mix "
PERFORMER "梁咏琪"
REM REPLAYGAIN_TRACK_GAIN +0.00 dB
REM REPLAYGAIN_TRACK_PEAK 0.000000
INDEX 00 35:08:67
INDEX 01 35:09:30

lz这样更好点