李云迪 -《维也纳独奏会》(Yundi Li-Vienna Recital)分轨[APE]

李云迪 -《维也纳独奏会》(Yundi Li-Vienna Recital)分轨[APE]
  • 片  名  李云迪 -《维也纳独奏会》(Yundi Li-Vienna Recital)分轨[APE]
  • 简  介  发行时间: 2005年10月04日
  • 类  别  音乐
  • 小  类  古典音乐


  • 详细介绍专辑英文名: Yundi Li-Vienna Recital专辑中文名: 维也纳独奏会艺术家: 李云迪资源格式: APE版本: 分轨发行时间: 2005年10月04日地区: 美国简介:
    专辑介绍:
    二○○五年六月,李云迪在维也纳「金色大厅」完成了这张崭新的独奏专辑。赫赫有名的音乐家如李斯特、拉赫曼尼诺夫、霍洛维兹都曾经在「金色大厅」,透过他们的琴声,感动无数心灵。赢得萧邦钢琴大赛首奖之后,李云迪不仅在亚洲拥有成千上万的死忠粉丝,也赢得欧美地区乐迷喜爱。历经数年在汉诺威音。乐院的沉潜深造,李云迪的琴艺更上层楼,新专辑中的李斯特西班牙狂想曲与舒曼狂欢节,展现李云迪持续耕耘浪漫派曲目,兼备广度与深度的丰硕成果。值得一提的是,在新专辑中,李云迪将詮释触角延伸至古典乐派:史卡拉第的两首奏鸣曲K.380 与 K.13,以及莫札特的第十号钢琴奏鸣曲 K.330。古典奏鸣曲。的精巧细緻,恰好与李云迪纤细敏锐的气质相符,精準而贴切,钢琴巨匠霍洛维兹在重返莫斯科的音乐会上,莫札特K.330与史卡拉第K.380便是音乐会曲目。李云迪是否藉此安排,表达向大师致敬之意,听听他在专辑中的演出,或许就能找到端倪。这套曲目是李云迪二○○五年全球巡迴演出(包括台湾)的指定曲,美国的American Record Guide曾发表这样的评论:「听完这场独奏会,证明他已经是钢琴界的超级巨星。」李云迪正稳建地朝向钢琴大师的目标迈进,相信以他对艺术的执着与努力,肯定指日可待。
    PS:ADSL做源请耐心,请下完的朋友帮忙分流,24小时开机(停电除外),回贴是种美德
  • 李云迪 -《维也纳独奏会》(Yundi Li-Vienna Recital)分轨[APE]_large

精选评论

感谢楼主分享!很欣赏李云迪,感觉他稳步而保持着灵性地走在通往大师的路上~
非常好的东西,谢楼主!顶!
谢谢楼主分享!
谢谢
在下了,谢谢楼主
谢谢楼主!简直是钢琴爱好者的福音,超喜欢李云迪,有空多多交流!!
PERFORMER "Yundi Li"
TITLE "Vienna Recital"
FILE "CDImage.ape" WAVE
TRACK 01 AUDIO
TITLE "Scarlatti Sonate K 380 "
PERFORMER "Yundi Li"
INDEX 01 00:00:00
TRACK 02 AUDIO
TITLE "Scarlatti Sonata K.13"
PERFORMER "Yundi Li"
INDEX 01 05:17:48
TRACK 03 AUDIO
TITLE "Mozart sonota No.10 k331-Allegro moderato"
PERFORMER "Yundi Li"
INDEX 00 09:44:74
INDEX 01 09:45:04
TRACK 04 AUDIO
TITLE "Mozart sonota No.10 k331-Andante cantabile"
PERFORMER "Yundi Li"
INDEX 00 15:47:73
INDEX 01 15:48:23
TRACK 05 AUDIO
TITLE "Mozart sonota No.10 k331-Allegretto"
PERFORMER "Yundi Li"
INDEX 01 22:28:15
TRACK 06 AUDIO
TITLE "Schumann Carnaval Op. 9-Preambule"
PERFORMER "Yundi Li"
INDEX 00 27:40:30
INDEX 01 27:45:32
TRACK 07 AUDIO
TITLE "Schumann Carnaval Op. 9-Pierrot"
PERFORMER "Yundi Li"
INDEX 01 30:01:09
TRACK 08 AUDIO
TITLE "Schumann Carnaval Op. 9-Arlequin"
PERFORMER "Yundi Li"
INDEX 01 32:02:04
TRACK 09 AUDIO
TITLE "Schumann Carnaval Op. 9-Valse noble"
PERFORMER "Yundi Li"
INDEX 00 33:03:56
INDEX 01 33:03:57
TRACK 10 AUDIO
TITLE "Schumann Carnaval Op. 9-Eusebius"
PERFORMER "Yundi Li"
INDEX 01 35:09:26
TRACK 11 AUDIO
TITLE "Schumann Carnaval Op. 9-Florestan"
PERFORMER "Yundi Li"
INDEX 01 36:49:36
TRACK 12 AUDIO
TITLE "Schumann Carnaval Op. 9-Coquette"
PERFORMER "Yundi Li"
INDEX 00 37:41:01
INDEX 01 37:41:34
TRACK 13 AUDIO
TITLE "Schumann Carnaval Op. 9-Replique"
PERFORMER "Yundi Li"
INDEX 01 39:19:59
TRACK 14 AUDIO
TITLE "Schumann Carnaval Op. 9-Papillons"
PERFORMER "Yundi Li"
INDEX 01 40:08:48
TRACK 15 AUDIO
TITLE "Schumann Carnaval Op. 9-Lettres dansantes"
PERFORMER "Yundi Li"
INDEX 00 40:52:17
INDEX 01 40:52:53
TRACK 16 AUDIO
TITLE "Schumann Carnaval Op. 9-Chiarina"
PERFORMER "Yundi Li"
INDEX 01 41:40:30
TRACK 17 AUDIO
TITLE "Schumann Carnaval Op. 9-Chopin"
PERFORMER "Yundi Li"
INDEX 00 43:03:36
INDEX 01 43:03:42
TRACK 18 AUDIO
TITLE "Schumann Carnaval Op. 9-Estrella"
PERFORMER "Yundi Li"
INDEX 00 44:17:41
INDEX 01 44:17:60
TRACK 19 AUDIO
TITLE "Schumann Carnaval Op. 9-Reconnaissance"
PERFORMER "Yundi Li"
INDEX 00 44:50:49
INDEX 01 44:50:54
TRACK 20 AUDIO
TITLE "Schumann Carnaval Op. 9-Pantalon et Colombine"
PERFORMER "Yundi Li"
INDEX 01 46:25:29
TRACK 21 AUDIO
TITLE "Schumann Carnaval Op. 9-Valse allemande"
PERFORMER "Yundi Li"
INDEX 01 47:20:32
TRACK 22 AUDIO
TITLE "Schumann Carnaval Op. 9-Intermezzo Paganini"
PERFORMER "Yundi Li"
INDEX 01 48:26:02
TRACK 23 AUDIO
TITLE "Schumann Carnaval Op. 9-Aveu"
PERFORMER "Yundi Li"
INDEX 01 49:47:24
TRACK 24 AUDIO
TITLE "Schumann Carnaval Op. 9-Promenade"
PERFORMER "Yundi Li"
INDEX 00 51:07:39
INDEX 01 51:07:43
TRACK 25 AUDIO
TITLE "Schumann Carnaval Op. 9-Pause"
PERFORMER "Yundi Li"
INDEX 00 53:37:60
INDEX 01 53:38:11
TRACK 26 AUDIO
TITLE "Schumann Carnaval Op. 9-Marche des 'Davidsbundler' contre les Philistins"
PERFORMER "Yundi Li"
INDEX 00 53:53:08
INDEX 01 53:53:22
TRACK 27 AUDIO
TITLE "Liszt-Rhapsodie espagnole"
PERFORMER "Yundi Li"
INDEX 00 57:22:53
INDEX 01 57:32:47

也算回复。
急 解压缩密码是多少啊!!!
他的肖邦精选很棒,下载中
感谢楼主分享
哪里需要解压缩密码?ls不要瞎说。
支持下!
让音乐熏陶我们的生命!