《旋风管家第二季原声集》(Hayate the combat butler 2nd Season)[TV OST][附BK][APE]

《旋风管家第二季原声集》(Hayate the combat butler 2nd Season)[TV OST][附BK][APE]
  • 片  名  《旋风管家第二季原声集》(Hayate the combat butler 2nd Season)[TV OST][附BK][APE]
  • 简  介  发行时间: 2009年07月29日对白语言: 日语文字语言: 日文
  • 类  别  动漫
  • 小  类  动漫周边


  • 详细介绍中文名: 旋风管家第二季原声集英文名: Hayate the combat butler 2nd Season别名: ハヤテのごとく!!资源格式: APE版本: [TV OST][附BK]发行时间: 2009年07月29日地区: 日本对白语言: 日语文字语言: 日文简介: 【剧情介绍】
    由于父母的关系而背负了1亿5千万円的可怜的主人公绫崎飒,在圣诞夜走投无路下,他妄图绑架附近公园的少女换取赎金,冲过去就对少女说“我……需要你(当人质,当然这后面3个字还没出口)”,阴差阳错再加层层误会之下,飒反倒成了少女的救命恩人。怎知这位少女正是三千院财阀大小姐,为了报答救命之恩她偿还了飒的债务。为了报答大小姐的恩情,飒成为了三千院家的管家,认真的工作来偿还这笔“债务”于是,绫崎飒的管家生活就此开始……
    【专辑介绍】
    ハヤテのごとく!! 2nd season オリジナル・サウンドトラック
    アニメサントラ 商品番号 GNCA-1176
    メディア アルバム CD
    組枚数 1
    価格 2940円(税込)
    発売日 2009/07/29
    内容
    テレビ東京ほかにて放送中の「ハヤテのごとく!!」のオリジナル・サウンドトラック!! 音楽は前シリーズからお馴染みの中川幸太郎。巷のバラエティやワイドショーで耳にするあの曲やこの曲も、実は「ハヤテ」のBGMだったり!? 番組を彩る珠玉の小品集は結構聴き応えあり!!
    【Artist Cast】
    中川幸太郎
    【收录曲目】
    1 快濶
    2 謳歌
    3 揚々
    4 決然
    5 サブタイトル は
    6 珍妙
    7 無念
    8 迂闊
    9 躍起
    10 愛嬌
    11 アイキャッチ ほ
    12 軒昂
    13 感懐
    14 難渋
    15 喧騒
    16 沈鬱
    17 懐抱
    18 懸念
    19 アイキャッチ ヘ
    20 洒脱
    21 寂然
    22 稚気
    23 思慕
    24 追憶
    25 唖然
    26 逡巡
    27 戯言
    28 苦渋
    29 嫋嫋
    30 不覚
    31 アイキャッチ と
    32 荘重
    33 焦慮
    34 安逸
    35 伊達
    36 鼓舞
    37 気楽
    38 弛緩
    39 膠着
    40 気概
    41 アイキャッチ ち
    42 寂寥
    43 剥落
    44 悶々
    45 安寧
    46 聖夜
  • 《旋风管家第二季原声集》(Hayate the combat butler 2nd Season)[TV OST][附BK][APE]_large

精选评论

BGM的名字还真素简练明了- -
- - 還真是夠精簡的...
希望能补上mp3格式的,感激不尽~
- - 只要是旋风管家的我就收藏了。。。谢谢楼主的分享撒~~
又一轮周边狂潮阿
管家大爱啊~~
= =果然十分簡潔明了
多谢楼主分享哈
感谢
好东西~
第二季的OPED无爱~这个如何呢?
感谢哦 楼主 永远支持你
CATALOG 4988102596521
PERFORMER "Various"
TITLE "Hayate no Gotoku!The 2nd season Original Soundtrack"
FILE "CDImage.ape" WAVE
TRACK 01 AUDIO
TITLE "快濶"
PERFORMER ""
ISRC JPPI00961470
INDEX 01 00:00:00
TRACK 02 AUDIO
TITLE "謳歌"
PERFORMER ""
ISRC JPPI00961480
INDEX 00 01:56:57
INDEX 01 01:57:56
TRACK 03 AUDIO
TITLE "揚々"
PERFORMER ""
ISRC JPPI00961490
INDEX 00 03:26:36
INDEX 01 03:27:35
TRACK 04 AUDIO
TITLE "決然"
PERFORMER ""
ISRC JPPI00961500
INDEX 00 04:34:48
INDEX 01 04:35:47
TRACK 05 AUDIO
TITLE "サブタイトル は"
PERFORMER ""
ISRC JPPI00961510
INDEX 00 05:44:50
INDEX 01 05:45:48
TRACK 06 AUDIO
TITLE "珍妙"
PERFORMER ""
ISRC JPPI00961520
INDEX 00 05:54:47
INDEX 01 05:55:46
TRACK 07 AUDIO
TITLE "無念"
PERFORMER ""
ISRC JPPI00961530
INDEX 00 06:23:13
INDEX 01 06:24:11
TRACK 08 AUDIO
TITLE "迂闊"
PERFORMER ""
ISRC JPPI00961540
INDEX 00 07:44:26
INDEX 01 07:45:24
TRACK 09 AUDIO
TITLE "躍起"
PERFORMER ""
ISRC JPPI00961550
INDEX 00 08:53:54
INDEX 01 08:54:53
TRACK 10 AUDIO
TITLE " 愛嬌"
PERFORMER ""
ISRC JPPI00961560
INDEX 00 10:08:38
INDEX 01 10:09:36
TRACK 11 AUDIO
TITLE "アイキャッチ ほ"
PERFORMER ""
ISRC JPPI00961570
INDEX 00 11:30:04
INDEX 01 11:31:02
TRACK 12 AUDIO
TITLE "軒昂"
PERFORMER ""
ISRC JPPI00961580
INDEX 00 11:39:73
INDEX 01 11:40:71
TRACK 13 AUDIO
TITLE "感懐"
PERFORMER ""
ISRC JPPI00961590
INDEX 00 12:59:19
INDEX 01 13:00:17
TRACK 14 AUDIO
TITLE "難渋"
PERFORMER ""
ISRC JPPI00961600
INDEX 00 14:07:55
INDEX 01 14:08:54
TRACK 15 AUDIO
TITLE "喧騒"
PERFORMER ""
ISRC JPPI00961610
INDEX 00 15:20:22
INDEX 01 15:21:21
TRACK 16 AUDIO
TITLE "沈鬱"
PERFORMER ""
ISRC JPPI00961620
INDEX 00 16:51:39
INDEX 01 16:52:37
TRACK 17 AUDIO
TITLE "懐抱"
PERFORMER ""
ISRC JPPI00961630
INDEX 00 18:20:31
INDEX 01 18:21:29
TRACK 18 AUDIO
TITLE "懸念"
PERFORMER ""
ISRC JPPI00961640
INDEX 00 19:31:52
INDEX 01 19:32:51
TRACK 19 AUDIO
TITLE "アイキャッチ ヘ"
PERFORMER ""
ISRC JPPI00961650
INDEX 00 20:58:45
INDEX 01 20:59:44
TRACK 20 AUDIO
TITLE "洒脱"
PERFORMER ""
ISRC JPPI00961660
INDEX 00 21:08:49
INDEX 01 21:09:48
TRACK 21 AUDIO
TITLE "寂然"
PERFORMER ""
ISRC JPPI00961670
INDEX 00 22:33:18
INDEX 01 22:34:17
TRACK 22 AUDIO
TITLE "稚気"
PERFORMER ""
ISRC JPPI00961680
INDEX 00 24:11:19
INDEX 01 24:12:17
TRACK 23 AUDIO
TITLE "思慕"
PERFORMER ""
ISRC JPPI00961690
INDEX 00 25:27:52
INDEX 01 25:28:51
TRACK 24 AUDIO
TITLE "追憶"
PERFORMER ""
ISRC JPPI00961700
INDEX 00 27:02:47
INDEX 01 27:03:45
TRACK 25 AUDIO
TITLE "唖然"
PERFORMER ""
ISRC JPPI00961710
INDEX 00 28:40:21
INDEX 01 28:41:20
TRACK 26 AUDIO
TITLE "逡巡"
PERFORMER ""
ISRC JPPI00961720
INDEX 00 30:05:58
INDEX 01 30:06:57
TRACK 27 AUDIO
TITLE "戯言"
PERFORMER ""
ISRC JPPI00961730
INDEX 00 31:26:54
INDEX 01 31:27:53
TRACK 28 AUDIO
TITLE "苦渋"
PERFORMER ""
ISRC JPPI00961740
INDEX 00 32:34:44
INDEX 01 32:35:43
TRACK 29 AUDIO
TITLE "嫋嫋"
PERFORMER ""
ISRC JPPI00961750
INDEX 00 33:10:41
INDEX 01 33:11:39
TRACK 30 AUDIO
TITLE "不覚"
PERFORMER ""
ISRC JPPI00961760
INDEX 00 34:30:64
INDEX 01 34:31:63
TRACK 31 AUDIO
TITLE "アイキャッチ と"
PERFORMER ""
ISRC JPPI00961770
INDEX 00 35:47:04
INDEX 01 35:48:02
TRACK 32 AUDIO
TITLE "荘重"
PERFORMER ""
ISRC JPPI00961780
INDEX 00 35:56:68
INDEX 01 35:57:67
TRACK 33 AUDIO
TITLE "焦慮"
PERFORMER ""
ISRC JPPI00961790
INDEX 00 37:46:53
INDEX 01 37:47:52
TRACK 34 AUDIO
TITLE "安逸"
PERFORMER ""
ISRC JPPI00961800
INDEX 00 39:15:25
INDEX 01 39:16:23
TRACK 35 AUDIO
TITLE "伊達"
PERFORMER ""
ISRC JPPI00961810
INDEX 00 40:21:54
INDEX 01 40:22:53
TRACK 36 AUDIO
TITLE "鼓舞"
PERFORMER ""
ISRC JPPI00961820
INDEX 00 41:33:72
INDEX 01 41:34:71
TRACK 37 AUDIO
TITLE "気楽"
PERFORMER ""
ISRC JPPI00961830
INDEX 00 42:58:10
INDEX 01 42:59:08
TRACK 38 AUDIO
TITLE "弛緩"
PERFORMER ""
ISRC JPPI00961840
INDEX 00 44:19:74
INDEX 01 44:20:72
TRACK 39 AUDIO
TITLE "膠着"
PERFORMER ""
ISRC JPPI00961850
INDEX 00 45:39:03
INDEX 01 45:40:02
TRACK 40 AUDIO
TITLE "気概"
PERFORMER ""
ISRC JPPI00961860
INDEX 00 46:14:62
INDEX 01 46:15:61
TRACK 41 AUDIO
TITLE "アイキャッチ ち"
PERFORMER ""
ISRC JPPI00961870
INDEX 00 47:33:16
INDEX 01 47:34:15
TRACK 42 AUDIO
TITLE "寂寥"
PERFORMER ""
ISRC JPPI00961880
INDEX 00 47:42:42
INDEX 01 47:43:41
TRACK 43 AUDIO
TITLE "剥落"
PERFORMER ""
ISRC JPPI00961890
INDEX 00 49:21:59
INDEX 01 49:22:58
TRACK 44 AUDIO
TITLE "悶々"
PERFORMER ""
ISRC JPPI00961900
INDEX 00 50:43:69
INDEX 01 50:44:67
TRACK 45 AUDIO
TITLE "安寧"
PERFORMER ""
ISRC JPPI00961910
INDEX 00 51:55:28
INDEX 01 51:56:27
TRACK 46 AUDIO
TITLE "聖夜"
PERFORMER ""
ISRC JPPI00961920
INDEX 00 53:28:44
INDEX 01 53:29:43
"1.类似“顶”、“沙发”之类没有营养的文字,对勤劳贡献的楼主来说是令人沮丧的反馈信息。"

顶,不是沙发,感谢楼主!!!!

哈哈