Neville Marriner -《德沃夏克.柴科夫斯基弦乐小夜曲.格里格霍尔堡组曲》(Dvorak.Tchaikovsky.Serenades for Strings.Grieg Holberg Suite)DECCA Legends[APE]

Neville Marriner -《德沃夏克.柴科夫斯基弦乐小夜曲.格里格霍尔堡组曲》(Dvorak.Tchaikovsky.Serenades for Strings.Grieg Holberg Suite)DECCA Legends[APE]
  • 片  名  Neville Marriner -《德沃夏克.柴科夫斯基弦乐小夜曲.格里格霍尔堡组曲》(Dvorak.Tchaikovsky.Serenades for Strings.Grieg Holberg Suite)DECCA Legends[APE]
  • 简  介  发行时间: 2002年
  • 类  别  音乐
  • 小  类  古典音乐


  • 详细介绍专辑英文名: Dvorak.Tchaikovsky.Serenades for Strings.Grieg Holberg Suite专辑中文名: 德沃夏克.柴科夫斯基弦乐小夜曲.格里格霍尔堡组曲艺术家: Neville Marriner资源格式: APE版本: DECCA Legends发行时间: 2002年地区: 英国简介:
    作曲:Dvorak.Tckaikovsky,Grieg
    指挥:Neville Marriner
    演奏:Academy of St Martin in the Fields
    录音日期:1968年四月(Tchaikovsky),1970年5月(Dvorak,Grieg)
    发行公司:DECCA
    CD编号:470 262-2
    资源出处(Credit):原版自抓
    专辑介绍:
    我至今还清楚的记得我第一次听这张CD带给我的感动。夏末秋初的夜晚,草虫已经耐不住整个夏天的寂寞,活跃起来。虽然还带着夏日的气息,但是已经比较凉爽的晚风,顺着房间的纱门从院子里溜了进来。此情此景就够让人惬意了,更何况再听演绎如此出色的马里纳的这张碟呢。整体而言,马里纳处理的非常好,每一个声部都能清晰入耳。小提琴部尤为出色。其中我最喜欢的就是柴科夫斯基弦乐小夜曲第二乐章(Moderato,tempo di valse),尤其是其第21小结往后,小提琴部的齐奏。
    马里纳棒下的圣马丁乐团将乐谱上的顿音,表现为非常流畅自然的抑扬顿挫。每次听到这里我都会屏息,生怕呼吸声盖过弱音以致漏听哪怕一个音符。
    ——原创评论
    内维尔·马里纳(英语:Neville Marriner,1924年4月15日-),是英国的指挥家和小提琴家,生于英格兰林肯。
    13岁时他就已经在皇家音乐学院学习小提琴,后来到巴黎音乐学院求学。1950年到1959年成为皇家音乐学院小提琴教授。1959年创办举世闻名的圣马丁室内乐团(Academy of St. Martin in the Fields),乐团的名字来源于伦敦一所教堂的名字。马里纳与乐团合作录制了大量的唱片。1969年到1979年,他成为洛杉矶室内乐团指挥。
    此外他还担任明尼苏达乐团的音乐指导直至1986年。从1983年到1989年,他开始带领斯图加特广播交响乐团。1985年他指挥圣马丁室内乐团为电影《莫扎特》配乐。1985年获得“爵士”称号。自1990年起马里纳作为自由指挥家来往于欧洲和美国各地。马里纳是单簧管演奏家安德鲁·马里纳的父亲。(转自维基百科)
    德沃夏克共作有两首小夜曲,一首为弦乐小夜曲,另一首为小型管弦乐小夜曲。《弦乐小夜曲》,E大调,0P.22,作于1875年,1876年12月10日由布拉格国民剧院乐团首演,共5个乐章:
    1.中板,E大调,3段体。第一段主题起伏有致,而中段主题G大调,有附点节奏,形同跳跃,第三段为第一段的再现。
    2.圆舞曲速度,升C小调,甚快板,3段体,第一段有3个圆舞曲主题,中段旋律性主题以卡农的方式反复。
    3.谐谑曲,活泼的快板,F大调。以卡农方式开头,3段歌谣形式的轻快的谐谑曲,加上厚重的A大调中段形成复合的3段体。
    4.甚缓板,A大调,也为3段体,以卡农的方式反复,第一段有极为抒情的主题,中段速度转快,转而呈现轻快的意象,有人认为类似繁星满天的夜空。
    5.终曲,活泼的快板,升F小调-E大调,采用不规则的回旋奏鸣曲形式
    柴科夫斯基《弦乐小夜曲》 作于1880年,弦乐合奏曲。
      全曲共分四个乐章,每个乐章都附有标题。
      第一乐章 小奏鸣曲式的小品。 序奏采用行板,后转中庸的快板,C大调,6/8拍子。由省略展开部奏鸣曲式构成。序奏主题庄重有力,充满内在活力。 主部主题流畅而委婉,旋律起伏较大,色彩沉郁而略含哀怨。
      第二乐章 圆舞曲。采用三部曲式,G大调,中速3/4拍子。乐章主题是人们非常熟悉的一段旋律,轻盈舒展,典雅柔
  • Neville Marriner -《德沃夏克.柴科夫斯基弦乐小夜曲.格里格霍尔堡组曲》(Dvorak.Tchaikovsky.Serenades for Strings.Grieg Holberg Suite)DECCA Legends[APE]_large

精选评论

已有此碟,值得永久收藏。
感谢分享~~~~~~~~~!
正准备买此碟,先下来听听,非常感谢!
Neville Marriner错过既是罪过
最喜欢这个交响乐团演奏的这类作品!
细腻精致!马里纳……
谢谢分享!
谢谢!驴上decca legend的东西太少了
解压缩有问题啊,不知道其他人有没?
“传奇”系列的精品啊。顶。
DECCA那时录音,张张经典...
柴可夫斯基小夜曲,第一乐章开头很棒
请教楼主里面的 cue文件怎么播放不了?
遇到这种情况怎么修改?
CUE文件使用多种方法修改,就是不能播放,郁闷..........
经过反复试验,终于弄出了一个可以使用的CUE文件了,提供给需要的兄弟!如下:

PERFORMER "Neville Marriner"
TITLE "Dvorak - Tchaikovsky - Grieg - Neville Marriner (Conductor)"
FILE "CDImage.ape" WAVE
TRACK 01 AUDIO
TITLE "Dvorak: Moderato"
PERFORMER "Dvorak - Tchaikovsky - Grieg - Neville Marriner (Conductor)"
INDEX 01 00:00:00
TRACK 02 AUDIO
TITLE "Dvorak: Tempo di valse"
PERFORMER "Dvorak - Tchaikovsky - Grieg - Neville Marriner (Conductor)"
INDEX 00 04:38:74
INDEX 01 04:39:00
TRACK 03 AUDIO
TITLE "Dvorak: Scherzo: Vivace"
PERFORMER "Dvorak - Tchaikovsky - Grieg - Neville Marriner (Conductor)"
INDEX 00 10:58:74
INDEX 01 10:59:00
TRACK 04 AUDIO
TITLE "Dvorak: Larghetto"
PERFORMER "Dvorak - Tchaikovsky - Grieg - Neville Marriner (Conductor)"
INDEX 00 16:34:74
INDEX 01 16:35:00
TRACK 05 AUDIO
TITLE "Dvorak: Finale: Allegro vivace"
PERFORMER "Dvorak - Tchaikovsky - Grieg - Neville Marriner (Conductor)"
INDEX 00 21:53:74
INDEX 01 21:54:00
TRACK 06 AUDIO
TITLE "Tchaikovsky: Pezzo in forma di sonatina: Andante non troppo - Allegro "
PERFORMER "Dvorak - Tchaikovsky - Grieg - Neville Marriner (Conductor)"
INDEX 00 27:59:74
INDEX 01 28:06:00
TRACK 07 AUDIO
TITLE "Tchaikovsky: Walzer: Moderato, tempo di valse"
PERFORMER "Dvorak - Tchaikovsky - Grieg - Neville Marriner (Conductor)"
INDEX 00 37:22:74
INDEX 01 37:23:00
TRACK 08 AUDIO
TITLE "Tchaikovsky: Elgei: Largetto elegiaco"
PERFORMER "Dvorak - Tchaikovsky - Grieg - Neville Marriner (Conductor)"
INDEX 00 41:02:74
INDEX 01 41:03:00
TRACK 09 AUDIO
TITLE "Tchaikovsky: Finale (Tema russo): Andante - Allegro con spirito"
PERFORMER "Dvorak - Tchaikovsky - Grieg - Neville Marriner (Conductor)"
INDEX 00 51:00:39
INDEX 01 51:00:40
TRACK 10 AUDIO
TITLE "Grieg: Praeludium: Allegro vivace"
PERFORMER "Dvorak - Tchaikovsky - Grieg - Neville Marriner (Conductor)"
INDEX 00 58:33:74
INDEX 01 58:40:00
TRACK 11 AUDIO
TITLE "Grieg: Sarabande: Andante"
PERFORMER "Dvorak - Tchaikovsky - Grieg - Neville Marriner (Conductor)"
INDEX 00 61:19:74
INDEX 01 61:20:00
TRACK 12 AUDIO
TITLE "Grieg: Gavotte: Allegreto - Musette: Poco piu mosso"
PERFORMER "Dvorak - Tchaikovsky - Grieg - Neville Marriner (Conductor)"
INDEX 00 65:51:74
INDEX 01 65:52:00
TRACK 13 AUDIO
TITLE "Grieg: Air: Andante religioso"
PERFORMER "Dvorak - Tchaikovsky - Grieg - Neville Marriner (Conductor)"
INDEX 00 69:20:73
INDEX 01 69:21:00
TRACK 14 AUDIO
TITLE "Greig: Rigaudon: Allegro con brio"
PERFORMER "Dvorak - Tchaikovsky - Grieg - Neville Marriner (Conductor)"
INDEX 00 75:27:74
INDEX 01 75:28:00