王俊雄 -《书香音乐世纪典藏系列之一 云水》(Drifting With the Cloud)[APE]

王俊雄 -《书香音乐世纪典藏系列之一 云水》(Drifting With the Cloud)[APE]
  • 片  名  王俊雄 -《书香音乐世纪典藏系列之一 云水》(Drifting With the Cloud)[APE]
  • 简  介  无
  • 类  别  音乐
  • 小  类  古典音乐


  • 详细介绍专辑英文名: Drifting With the Cloud专辑中文名: 书香音乐世纪典藏系列之一 云水艺术家: 王俊雄资源格式: APE地区: 台湾语言: 普通话简介:
    专辑介绍:
    云、水都是飘流不定,柔情万种的。中国文人对它的偏爱,到了痴狂的地步。国画离不开山水,云水是创造意境的灵魂.诗歌离不开云水,有了云水,凭添几分逸趣。寺院丛林也以“云水僧”来雅称云游四方居无定所的道人。对云水的偏爱,反映了人们对自由自在的渴望。於是云水之间,遂成了暂避尘琐的桃花源,在这里,压力被释放,生命被解套,在云水间呼吸到自由的空气,舒展出开阔的空间,重新找到生命的能量与光芒。
  • 王俊雄 -《书香音乐世纪典藏系列之一 云水》(Drifting With the Cloud)[APE]_large

精选评论

PERFORMER "云水"
TITLE "书香音乐世纪典藏系列之一 云水"
FILE "王俊雄.-.[云水].专辑.(ape).ape" WAVE
TRACK 01 AUDIO
TITLE "山野幽居"
PERFORMER "书香音乐世纪"
INDEX 00 00:00:00
INDEX 01 00:00:01
TRACK 02 AUDIO
TITLE "疏梅弄影"
PERFORMER "书香音乐世纪"
INDEX 01 07:30:42
TRACK 03 AUDIO
TITLE "庭竹滴泉"
PERFORMER "书香音乐世纪"
INDEX 01 14:14:17
TRACK 04 AUDIO
TITLE "湖亭晚归"
PERFORMER "书香音乐世纪"
INDEX 01 20:05:67
TRACK 05 AUDIO
TITLE "风雨残雷"
PERFORMER "书香音乐世纪"
INDEX 01 28:21:38
TRACK 06 AUDIO
TITLE "水月空禅心"
PERFORMER "书香音乐世纪"
INDEX 01 35:45:09
TRACK 07 AUDIO
TITLE "登轩待月"
PERFORMER "书香音乐世纪"
INDEX 01 43:10:45
TRACK 08 AUDIO
TITLE "行云流水"
PERFORMER "书香音乐世纪"
INDEX 01 50:24:12
下载后可以把cue文件用记事本打开,把上面的复制覆盖。
超级喜欢
还没听过王俊雄的音乐,感觉应该不错,新添了硬盘,可以随意下载了。
不知道有源了没!咳!
是个好东西,正在下,不过才下得半半的,就没有源了,哪位大虾行行好,给个方便
哈哈,我快升级了,再努力一点点
山野幽居 真不错! 飘逸自然、超脱
终于找到了!哈哈
就剩这个某下载咯!!
非常棒的音乐!~谢谢分享!~
还没听过王俊雄的音乐,感觉应该不错!~谢谢分享!~
收藏,谢谢LZ
楼主:求源啦。。。。谢谢!!!!!!!!!!!!!!!!!