东方神起(Tohoshinki) -《呪文-(MiroTic)》专辑[APE]

东方神起(Tohoshinki) -《呪文-(MiroTic)》专辑[APE]
  • 片  名  东方神起(Tohoshinki) -《呪文-(MiroTic)》专辑[APE]
  • 简  介  Douban3226948:9.1(519 votes)音乐风格: 流行发行时间: 2008年10月16日地区: 日本语言: 日语
  • 类  别  音乐
  • 小  类  日韩音乐


  • 详细介绍简介: 专辑介绍:
    东方神起的在七月推出日语单曲《どうして君を好きになってしまったんだろう》,首周销量稳占Oricon流行榜第一位,令他们的冠军单曲增至三张,成为拥有最多冠军单曲的外国艺人。忙个不停的五子,更会在9月于日韩两地发行新作品。
    东方神起在日本发行的最新单曲「呪文-Mirotic-」,是他们同时在韩国发行的最新专辑4集中的收入曲的日语版。DVD收入MV。
    首批DVD收录拍摄花絮和附照片卡(随机一款,共六款)。

    下载完成后请各位亲自行检测音质,如有问题的话M我。
    有意的亲请加仙后群:23845795(超级群哦!)
    由于本人学校网络速度有限,请大家耐心下载,最好可以帮忙分流下。
    最后一句要恶意挑衅去其他地方挑衅,不要把音乐与国家和政治、社会关联!
  • 东方神起(Tohoshinki) -《呪文-(MiroTic)》专辑[APE]_large

精选评论

Exact Audio Copy V0.99 prebeta 5 from 4. May 2009

EAC 抓取日志文件从25. 三月 2010, 12:29

未知艺术家 / 未知标题

使用驱动器 :Optiarc DVD RW AD-7700S Adapter: 0 ID: 1

读取模式 : 暴发

读取偏移校正 : 0
读取 Lead-In 和 Lead-Out : 否
用静音填充抓取中丢失偏移的采样 : 是
去除首尾静音块 : 否
在 CRC 计算中使用了空样本 : 否
已用接口 : Win NT 及 2000 本地 Win32 接口

所用输出格式 : 内部 WAV 函数
样本格式 : 44.100 Hz;16 Bit;立体声


被抓轨 CD 的 TOC

音轨 | 开始 | 长度 | 起始扇区 | 结尾扇区
--------------------------------------------------
1 | 0:00.00 | 3:31.63 | 0 | 15887
2 | 3:31.63 | 3:42.29 | 15888 | 32566
3 | 7:14.17 | 3:28.16 | 32567 | 48182


范围状态及错误

已选择范围

文件名 E:呪文-(MiroTic).wav

计时问题 0:00:02
计时问题 0:00:40

峰值电平 98.1 %
复制 CRC EA3CF1BD
复制结束

没有错误发生

状态报告结尾
REM DISCID 15028203
REM COMMENT "ExactAudioCopy v0.99pb5"
PERFORMER "未知艺术家"
TITLE "未知标题"
FILE "东方神起.-.[呪文-(MiroTic)].单曲.(APE).ape" APE
TRACK 01 AUDIO
TITLE "Track01"
PERFORMER "未知艺术家"
INDEX 01 00:00:00
TRACK 02 AUDIO
TITLE "Track02"
PERFORMER "未知艺术家"
INDEX 00 03:29:40
INDEX 01 03:31:63
TRACK 03 AUDIO
TITLE "Track03"
PERFORMER "未知艺术家"
INDEX 00 07:10:69
INDEX 01 07:14:17
少发这些没用的档了
发了又不供源
前几天发的那个都还下不了呢
又发这干嘛
放日专的吧~~~~~

。。。什么不供源啊,是学校网络有限

而且供源的人基本没有我有什么办法啊

还有既然亲这么想要神起的资源,为什么不支持正版呢?

还有亲是用吸血驴下的吧?那当然没源,我都打了DLP封禁的补丁。
男人们最近ape很多 超开心的~!谢谢楼楼分享~!