卢奇亚诺 帕瓦罗蒂
Luciano Panotti -《我的太阳》(O SOLE MIO)LIVE[APE]

卢奇亚诺 帕瓦罗蒂<br />Luciano Panotti -《我的太阳》(O SOLE MIO)LIVE[APE]
  • 片  名  卢奇亚诺 帕瓦罗蒂
    Luciano Panotti -《我的太阳》(O SOLE MIO)LIVE[APE]
  • 简  介  发行时间: 2003年
  • 类  别  音乐
  • 小  类  古典音乐


  • 详细介绍专辑英文名: O SOLE MIO专辑中文名: 我的太阳艺术家: 卢奇亚诺 帕瓦罗蒂
    Luciano Panotti资源格式: APE版本: LIVE发行时间: 2003年地区: 意大利语言: 意大利语简介:
    专辑简介:
    卢奇亚诺 帕瓦罗蒂,意大利男高音歌唱家,1961年在雷焦艾艾迷利国际比赛获奖,被称为“高音C之王”,高音和胸腔共鸣而著称,本世纪男高音中能专门在高音区飞翔的歌手只有帕瓦罗蒂,是世界三大男高音之一。补充下:是原版引进的,广东润王音像有限公司总代理,中国音乐家音像出版社出版.
    Tracks licensed courtesy of APEX Global Media Ltd 提供版权,属于HDCD 二型 Live Version 演唱会版本,去过很多城市才买到的很不容易~~
  • 卢奇亚诺 帕瓦罗蒂<br />Luciano Panotti -《我的太阳》(O SOLE MIO)LIVE[APE]_large

精选评论

可以把CUE发给我吗?? QQ236362722
方便的话,请把CUE也发给我吧,bluewing_clg@yahoo.com.cn谢谢!
cue在压缩包里啊哈哈
真是好碟,感谢楼主提供!
这张音质有问题,我听了,高音有破音存在,而且采用降噪处理的!
经典啊。。。
3年没来了,不知道再过3年还有源吗,自顶
久仰大名了,不知道这次能不能下来
非常感谢供源
高音处都有爆音!!!
是CD的问题,还是抓轨的问题???
中文的CUE来了,喜欢的复制后粘贴到原来的CUE中即可。
PERFORMER "帕瓦罗蒂"
TITLE "我的太阳"
FILE "我的太阳.ape" WAVE
TRACK 01 AUDIO
TITLE "重归苏莲托"
PERFORMER "帕瓦罗蒂"
INDEX 01 00:00:00
TRACK 02 AUDIO
TITLE "善变的女人"
PERFORMER "帕瓦罗蒂"
INDEX 00 02:41:26
INDEX 01 02:46:11
TRACK 03 AUDIO
TITLE "今夜无人入睡"
PERFORMER "帕瓦罗蒂"
INDEX 00 04:48:16
INDEX 01 04:53:00
TRACK 04 AUDIO
TITLE "罗马人的吉他"
PERFORMER "帕瓦罗蒂"
INDEX 00 07:37:64
INDEX 01 07:42:47
TRACK 05 AUDIO
TITLE "啊,我的太阳"
PERFORMER "帕瓦罗蒂"
INDEX 00 10:45:56
INDEX 01 10:50:40
TRACK 06 AUDIO
TITLE "这位小姐 那位太太"
PERFORMER "帕瓦罗蒂"
INDEX 00 13:37:47
INDEX 01 13:42:31
TRACK 07 AUDIO
TITLE "我们祖先的坟墓"
PERFORMER "帕瓦罗蒂"
INDEX 00 15:23:25
INDEX 01 15:28:10
TRACK 08 AUDIO
TITLE "穿上那戏袍"
PERFORMER "帕瓦罗蒂"
INDEX 00 21:42:08
INDEX 01 21:46:66
TRACK 09 AUDIO
TITLE "妈妈"
PERFORMER "帕瓦罗蒂"
INDEX 00 24:32:70
INDEX 01 24:37:54
TRACK 10 AUDIO
TITLE "巢中燕"
PERFORMER "帕瓦罗蒂"
INDEX 00 27:21:68
INDEX 01 27:26:51
TRACK 11 AUDIO
TITLE "香蝴蝶"
PERFORMER "帕瓦罗蒂"
INDEX 00 31:17:05
INDEX 01 31:21:64
TRACK 12 AUDIO
TITLE "勿忘我"
PERFORMER "帕瓦罗蒂"
INDEX 00 34:10:42
INDEX 01 34:15:25
TRACK 13 AUDIO
TITLE "我的朋友们"
PERFORMER "帕瓦罗蒂"
INDEX 00 37:29:03
INDEX 01 37:33:61
TRACK 14 AUDIO
TITLE "要以我的快乐"
PERFORMER "帕瓦罗蒂"
INDEX 00 40:41:03
INDEX 01 40:45:61
TRACK 15 AUDIO
TITLE "饮酒歌"
PERFORMER "帕瓦罗蒂"
INDEX 00 46:05:36
INDEX 01 46:09:29
TRACK 16 AUDIO
TITLE "离开了她啊"
PERFORMER "帕瓦罗蒂"
INDEX 01 49:21:36
TRACK 17 AUDIO
TITLE "世间美丽的少女"
PERFORMER "帕瓦罗蒂"
INDEX 01 53:22:19
TRACK 18 AUDIO
TITLE "沙滩"
PERFORMER "帕瓦罗蒂"
INDEX 01 58:04:41
TRACK 19 AUDIO
TITLE "我虽然无罪却受罪"
PERFORMER "帕瓦罗蒂"
INDEX 01 62:18:50
TRACK 20 AUDIO
TITLE "风之歌"
PERFORMER "帕瓦罗蒂"
INDEX 01 66:19:32
注意:ape和cue文件名都要改成:我的太阳。


谢谢,今天才下载回来,好东西始终都是有源的。