清醒 -《明日的荣耀》[FLAC]

清醒 -《明日的荣耀》[FLAC]
  • 片  名  清醒 -《明日的荣耀》[FLAC]
  • 简  介  音乐风格: 摇滚发行时间: 2007年地区: 大陆语言: 普通话
  • 类  别  音乐
  • 小  类  华语音乐


  • 详细介绍专辑中文名: 明日的荣耀歌手: 清醒音乐风格: 摇滚资源格式: FLAC发行时间: 2007年地区: 大陆语言: 普通话简介: 专辑介绍:
    10年前,他们发起了“北京新声”;10年后,他们再次锻造经典。这是一张带有终极思考态度及讽刺意味的专辑,是清醒乐队10年后的准时回归之作。专辑中掺杂了清醒10年来的太多人生感悟,并通过音乐的形式表现出来。
  • 清醒 -《明日的荣耀》[FLAC]_large

精选评论

以下为CUE文件内容:

REM DISCID 8A0AAB0A
REM COMMENT "ExactAudioCopy v0.99pb4"
PERFORMER "清醒"
TITLE "明日的荣耀"
FILE "清醒-明日的荣耀.flac" WAVE
TRACK 01 AUDIO
TITLE "壹"
PERFORMER "清醒"
FLAGS DCP
INDEX 01 00:00:00
TRACK 02 AUDIO
TITLE "黒丝绒"
PERFORMER "清醒"
FLAGS DCP
INDEX 00 04:47:71
INDEX 01 04:50:47
TRACK 03 AUDIO
TITLE "红加蓝"
PERFORMER "清醒"
FLAGS DCP
INDEX 00 11:13:05
INDEX 01 11:15:52
TRACK 04 AUDIO
TITLE "咖啡胡椒"
PERFORMER "清醒"
FLAGS DCP
INDEX 00 16:32:47
INDEX 01 16:35:57
TRACK 05 AUDIO
TITLE "坦克"
PERFORMER "清醒"
FLAGS DCP
INDEX 00 20:01:64
INDEX 01 20:04:69
TRACK 06 AUDIO
TITLE "在灿烂的夜空下"
PERFORMER "清醒"
FLAGS DCP
INDEX 00 23:27:59
INDEX 01 23:30:58
TRACK 07 AUDIO
TITLE "明日的荣耀 (demain.la gloire)"
PERFORMER "清醒"
FLAGS DCP
INDEX 00 27:43:72
INDEX 01 27:46:06
TRACK 08 AUDIO
TITLE "白"
PERFORMER "清醒"
FLAGS DCP
INDEX 00 32:43:54
INDEX 01 32:46:41
TRACK 09 AUDIO
TITLE "梦不醒"
PERFORMER "清醒"
FLAGS DCP
INDEX 00 36:48:37
INDEX 01 36:50:33
TRACK 10 AUDIO
TITLE "遗忘"
PERFORMER "清醒"
FLAGS DCP
INDEX 00 40:07:37
INDEX 01 40:10:26
Exact Audio Copy V0.99 prebeta 4 from 23. January 2008

EAC 抓取日志文件从20. 三月 2009, 20:39

清醒 / 明日的荣耀

使用驱动器 :PHILIPS DVDR1640P Adapter: 1 ID: 1

读取模式 : 保护
使用精确流 : 是
废除音频缓冲 : 是
使用 C2 指针 : 否

读取偏移校正 : 0
读取 Lead-In 和 Lead-Out : 否
用静音填充抓取中丢失偏移的采样 : 是
去除首尾静音块 : 否
在 CRC 计算中使用了空样本 : 否
已用接口 : Win NT 及 2000 本地 Win32 接口

所用输出格式 : 用户定义的编码器
已选比特率 : 768 kBit/s
质量 : 高
添加 ID3 标签 : 是
命令行压缩器 : D:Program FilesExact Audio CopyFlacflac.exe
附加命令行参数 : -6 -V -T "ARTIST=%a" -T "TITLE=%t" -T "ALBUM=%g" -T "DATE=%y" -T "TRACKNUMBER=%n" -T "GENRE=%m" -T "COMMENT=%e" %s -o %d


被抓轨 CD 的 TOC

音轨 | 开始 | 长度 | 起始扇区 | 结尾扇区
--------------------------------------------------
1 | 0:00.00 | 4:50.47 | 0 | 21796
2 | 4:50.47 | 6:25.05 | 21797 | 50676
3 | 11:15.52 | 5:20.05 | 50677 | 74681
4 | 16:35.57 | 3:29.12 | 74682 | 90368
5 | 20:04.69 | 3:25.64 | 90369 | 105807
6 | 23:30.58 | 4:15.23 | 105808 | 124955
7 | 27:46.06 | 5:00.35 | 124956 | 147490
8 | 32:46.41 | 4:03.67 | 147491 | 165782
9 | 36:50.33 | 3:19.68 | 165783 | 180775
10 | 40:10.26 | 5:21.37 | 180776 | 204887


范围状态及错误

已选择范围

文件名 D:电驴[夺帅].Fatal.Move.2008.DVDRip.XviD-wxl1-Subsaaaa未知艺术家 - 未知标题.wav

峰值电平 100.0 %
范围质量 100.0 %
复制 CRC EEB4FAC5
复制成功

没有错误发生

状态报告结尾
沙发 老树开花了!
十年啊!十年.......
已成大老板的嗓音依旧那么让人回味
ok 谢谢
我有他们的第一张专辑,是正版的磁带,非常支持这支乐队,也感谢楼主分享!
对此乐队,从不感冒。谢谢分享!
厉害啊,不知道还有没有源