赵传 -《我很丑可是我很温柔》专辑[APE]

赵传 -《我很丑可是我很温柔》专辑[APE]
  • 片  名  赵传 -《我很丑可是我很温柔》专辑[APE]
  • 简  介  Douban1483763:8.4(574 votes)发行时间: 1988年11月地区: 台湾语言: 普通话
  • 类  别  音乐
  • 小  类  华语音乐


  • 详细介绍简介: 专辑介绍:
    1988年,乐队主唱赵传与乐队合作推出了首张专辑《我很丑,可是我很温柔》。从商
    业角度讲,这是唱片公司成功包装歌手的一个典范。赵传并不俊美的外表被公司定位为
    城市芸芸众生中的一个无名小卒,并以此为出发点,铺陈了专辑中《不要挡在我的面前
    》、《我很丑,可是我很温柔》、《请不要在别人肩上哭泣》、《英勇勋章》等九首作
    品,成功表现出了赵传高亢的嗓音特性。《我很丑,可是我很温柔》在当时也成为了街
    头巷尾流行的俚语。
      红十字——以炽红的热血填塞在满满的生命垭口。平均25岁的红十字团员,都有
    着一颗年轻而执着的心,曾经获得1986“台湾第一届热门音乐联欢会比赛”冠军,经
    过数度换血,现在红十字一个礼拜有三天聚在一起练习、聊天。提及理想,红十字团
    员一致表示:为了志趣,他们要用自己的双手努力攀爬音乐领域,享受成果,成为国
    内一支成功的重摇滚乐队。
    主唱:赵传
      他的长相不突出,个性有如兀立山巅的秃鹰,看来冷静其实热情,声音有如山洪
    般的雄壮,血脉剧烈的鼓动,他是一个用生命在唱歌的人。
    吉他手:夏黎宝
      喜欢戴墨镜的他看来冷漠,服役时女友变异求去,使 180公分的颀长身影更加落
    寞。就读世新时,夏黎宝即活跃在各个西餐厅,将所有激情投注在铿锵的吉他声中。
    贝斯手:赵杰
      赵传形容赵杰是一个很有个性的男孩子,眉宇之间透着英斑,长长的头发更形潇
    洒,弹奏贝斯时神情专注迷人。尽管身边不乏女孩子追求,赵杰说:“爱情这东西我
    明白,但永远是什么?”
    键盘手:苏炳晔
      这个开朗、随和的大男孩,大伙腻称他“酥饼”。有一头Lional Richie的卷发,
    弹起Keyboard姿势优雅,完全溶入音乐的节奏。
    鼓手:刘锦渊
      鼓的后面是他的天堂乐园,尽情尽兴的挥洒鼓棒。说起来有孩子气的天真,笑起
    来咧着大大的嘴,傻憨憨的刘锦渊令人打从心里喜欢。
    监制:段钟潭 制作:友善的狗(沉光远 罗希 罗弘武) 编曲:Donald Ashley
    红十字鼓:Donald Ashley 贝斯:Mui Kai Sun 吉他:Peter Hg 键盘:Andrew
    录音室:香港/EMI录音室 台北/雅弘录音室 混音:台北/白金录音室 友善的狗 李士先
    摄影:陈福堂 设计:李明道 化妆:黄碧芬 企划:滚石企划部
  • 赵传 -《我很丑可是我很温柔》专辑[APE]_large

精选评论

CUE文件不好用啊,是不是有修复的方法,或者楼主是否能更新?
在百度上搜索到修改CUE文件的办法了把 FILE "赵传.-.[我很丑可是我很温柔].专辑.(ape).ape" WAVE 取代原来第三行的内容就可以了.(用文本打开原错误文件).
修改具体方法来自http://hi.baidu.com/lvsexinling/blog/item/84f499d6ee348a2c07088baa.html
绿色心灵空间的博客
REM DATE 1988
PERFORMER "趙傳"
TITLE "我很醜可是我很溫柔"
FILE "CDImage.ape" WAVE
TRACK 01 AUDIO
TITLE "請不要在別人的肩上哭泣"
INDEX 01 00:00:00
TRACK 02 AUDIO
TITLE "我很醜,可是我很溫柔(節奏版)"
INDEX 00 04:21:50
INDEX 01 04:24:50
TRACK 03 AUDIO
TITLE "看到日出就高歌"
INDEX 00 08:17:37
INDEX 01 08:20:37
TRACK 04 AUDIO
TITLE "不要擋在我的面前"
INDEX 00 11:58:25
INDEX 01 12:00:25
TRACK 05 AUDIO
TITLE "我一直以為你知道"
INDEX 00 15:33:25
INDEX 01 15:36:25
TRACK 06 AUDIO
TITLE "飛向月亮"
INDEX 00 19:07:37
INDEX 01 19:10:37
TRACK 07 AUDIO
TITLE "英勇勳章"
INDEX 00 22:44:37
INDEX 01 22:47:37
TRACK 08 AUDIO
TITLE "喊向黑色的天空"
INDEX 00 26:50:37
INDEX 01 26:53:37
TRACK 09 AUDIO
TITLE "決心"
INDEX 00 30:54:25
INDEX 01 30:57:25
TRACK 10 AUDIO
TITLE "我很醜,可是我很溫柔(溫柔版)"
INDEX 00 33:49:62
INDEX 01 33:52:62
TRACK 11 AUDIO
TITLE "最後一次沉默"
INDEX 00 37:36:00
INDEX 01 37:39:00
感谢楼主和楼上的朋友
这张是再版吧?!我记得老版专辑第一首歌是那首脍炙人口的“噢,莎莉”,这张居然就没有这首歌。
楼上的疑问是对的,不过我想要的是一直以为你知道.这里有,先谢谢楼主.
LZ,怎么检测是 mpeg转的呢?
楼上说清楚点,是Mpeg的吗?
我下了,这个很好,十分经典,顶!
TITLE "我很丑可是我很温柔"
FILE "赵传.-.[我很丑可是我很温柔].专辑.(ape).ape" WAVE
TRACK 01 AUDIO
PERFORMER "赵传"
TITLE "我很丑可是我很温柔"
INDEX 01 00:00:00
TRACK 02 AUDIO
PERFORMER "赵传"
TITLE "请不要在别人的肩上哭泣"
INDEX 01 04:21:53
TRACK 03 AUDIO
PERFORMER "赵传"
TITLE "我很丑,可是我很温柔(节奏版)"
INDEX 01 08:17:29
TRACK 04 AUDIO
PERFORMER "赵传"
TITLE "看到日出就高歌"
INDEX 01 11:58:14
TRACK 05 AUDIO
PERFORMER "赵传"
TITLE "不要挡在我的面前"
INDEX 01 15:35:31
TRACK 06 AUDIO
PERFORMER "赵传"
TITLE "我一直以为你知道"
INDEX 01 19:07:59
TRACK 07 AUDIO
PERFORMER "赵传"
TITLE "飞向月亮"
INDEX 01 22:41:25
TRACK 08 AUDIO
PERFORMER "赵传"
TITLE "喊向黑色的天空"
INDEX 01 26:48:72
TRACK 09 AUDIO
PERFORMER "赵传"
TITLE "决心"
INDEX 01 30:51:51
TRACK 10 AUDIO
PERFORMER "赵传"
TITLE "我很丑,可是我很温柔(温柔版)"
INDEX 01 33:48:44
TRACK 11 AUDIO
PERFORMER "赵传"
TITLE "最后一次沉默"
INDEX 01 37:35:03
怎么没有英勇勋章?
没英勇勋章不下了
非常喜欢赵传,不知道音质如何,先下了,感谢楼主