Marduk -《Nightwing》[FLAC]

Marduk -《Nightwing》[FLAC]
  • 片  名  Marduk -《Nightwing》[FLAC]
  • 简  介  Douban1793942:8.4(68 votes)发行时间: 1998年地区: 瑞典语言: 英语
  • 类  别  音乐
  • 小  类  欧美音乐


  • 详细介绍简介: 音乐风格: Black Metal
    专辑介绍:
    这张专辑依据吸血鬼的故事展开思路,众多黑暗金属乐队都选择了这个题材。整张专辑分为两个部分,题材来自15世纪,特兰斯瓦尼亚(罗马尼亚西部地区),咯尔巴阡山附近民间邪恶传说迩来,传说中那里是Vlad Dracula横行的地方,歌词极为血腥和露骨,比死亡金属更多了一分邪恶。后般部分更象一个电影的配乐,多了依稀的凝重和氛围感。依然是他们的优秀作品之一。另外值得一提的是这一年Cradle of Filth也发行了关于吸血鬼题材的著名专辑Cruelty And The Beasts,不同的他的题材是Bathory女伯爵。
    (转自死域:http://www.areadeath.net/main/page.php?id=1337)
    开始着手MARDUK无损系列。。。请大家支持下~黑金属是世界上最高雅的音乐~
    一个人开始做种,一开始下的人请谅解速度不快,希望大家解压出解压包后别删,给后面的兄弟留源~
  • Marduk -《Nightwing》[FLAC]_large

精选评论

Exact Audio Copy V0.99 prebeta 4 from 23. January 2008

EAC extraction logfile from 18. September 2008, 21:37

Marduk / Nightwing

Used drive : ASUS DRW-1608P3S Adapter: 0 ID: 0

Read mode : Secure
Utilize accurate stream : Yes
Defeat audio cache : Yes
Make use of C2 pointers : No

Read offset correction : 48
Overread into Lead-In and Lead-Out : No
Fill up missing offset samples with silence : Yes
Delete leading and trailing silent blocks : No
Null samples used in CRC calculations : No
Used interface : Installed external ASPI interface

Used output format : User Defined Encoder
Selected bitrate : 32 kBit/s
Quality : High
Add ID3 tag : No
Command line compressor : c:Program FilesExact Audio Copy 0.99pb4@@ FLACflac.exe
Additional command line options : --best --verify --tag "artist=%a" --tag "album=%g" --tag "genre=%m" --tag "date=%y" --tag "comment=EAC 0.99pb4 / FLAC 1.2.1 (q8 - best compression) / by Azaghal from MetalmadnesS TeaM << http://metalmadness.org >>" %s


TOC of the extracted CD

Track | Start | Length | Start sector | End sector
---------------------------------------------------------
1 | 0:00.32 | 2:09.13 | 32 | 9719
2 | 2:09.45 | 6:43.47 | 9720 | 39991
3 | 8:53.17 | 5:22.43 | 39992 | 64184
4 | 14:15.60 | 3:48.62 | 64185 | 81346
5 | 18:04.47 | 7:34.60 | 81347 | 115456
6 | 25:39.32 | 6:19.60 | 115457 | 143941
7 | 31:59.17 | 4:07.63 | 143942 | 162529
8 | 36:07.05 | 4:02.40 | 162530 | 180719
9 | 40:09.45 | 5:06.45 | 180720 | 203714
10 | 45:16.15 | 2:11.47 | 203715 | 213586


Range status and errors

Selected range

Filename z:home azvanEAC extractedMarduk - Nightwing.wav

Peak level 100.0 %
Range quality 100.0 %
Copy CRC D95F185F
Copy OK

No errors occurred


AccurateRip summary

Track 1 accurately ripped (confidence 17) [9A591B87]
Track 2 accurately ripped (confidence 17) [CB3C776E]
Track 3 accurately ripped (confidence 17) [2B7C9CC2]
Track 4 accurately ripped (confidence 17) [658DEFAD]
Track 5 accurately ripped (confidence 17) [D7A4616C]
Track 6 accurately ripped (confidence 17) [92CBE36D]
Track 7 accurately ripped (confidence 17) [B2A07C94]
Track 8 accurately ripped (confidence 17) [3BFF9CCA]
Track 9 accurately ripped (confidence 17) [C5E7A9A1]
Track 10 accurately ripped (confidence 17) [EF14011A]

All tracks accurately ripped

End of status report