Gérard Lesne & Circa1500 -《蓝斯涅演唱葡萄牙早期歌曲》(O Lusitano: Portuguese vilancetes, cantigas and romances)[FLAC]

Gérard Lesne & Circa1500 -《蓝斯涅演唱葡萄牙早期歌曲》(O Lusitano: Portuguese vilancetes, cantigas and romances)[FLAC]
  • 片  名  Gérard Lesne & Circa1500 -《蓝斯涅演唱葡萄牙早期歌曲》(O Lusitano: Portuguese vilancetes, cantigas and romances)[FLAC]
  • 简  介  发行时间: 1992年02月11日
  • 类  别  音乐
  • 小  类  古典音乐


  • 详细介绍简介: 作曲:Various Artist
    指挥:Nancy Hadden
    演出:Gérard Lesne
    乐团:Circa 1500
    录音日期:1989.11
    录音地点:St Paul s, New Southgate, London
    发行公司:Virgin Classic
    CD编号:7 24356 18402 2
    资源出处(Credit):eMule搜索
    专辑介绍:
    vilancetes(或Villancico)是指文艺复兴时代伊比利亚半岛地区非常流行的一种抒情韵文体作品,题材通常是关于自然,贞女,和无回报的爱。
    cantigas(坎蒂加)是西班牙民歌,一种中世纪的宗教歌曲。
    Gérard Lesne,法国人,假声男高音/男声女中音(male alto),他的职业生涯比较独特,在很大程度上是自学成才。一开始是作为一个爵士乐和摇滚歌手出现,但后来不仅转向了严肃音乐,还成为演绎早期音乐体裁的最出色的假声之一。
    本唱片由蓝斯涅演唱,哈登长笛兼指挥 Circa1500乐团。
    (FLAC+CUE+Log+Booklet+HTML曲目单)
    本专辑转发自emule搜索,感谢原发布者的慷慨分享。
  • Gérard Lesne & Circa1500 -《蓝斯涅演唱葡萄牙早期歌曲》(O Lusitano: Portuguese vilancetes, cantigas and romances)[FLAC]_large

精选评论

整理后去乱码的CUE:

REM DISCID 080F2C17
REM COMMENT ExactAudioCopy v0.95b3
PERFORMER "Gérard Lesne - Circa 1500, Nancy Hadden"
TITLE "O Lusitano. Portuguese Vilancetes, Cantigas And Romances"
FILE "Gérard Lesne - O Lusitano.flac" WAVE
TRACK 01 AUDIO
TITLE "La Folia"
ISRC ZP4003502644
INDEX 01 00:00:00
TRACK 02 AUDIO
TITLE "Manuel MACHADO. Dos estrellas le siguen"
ISRC ZP4003502644
INDEX 01 02:14:16
TRACK 03 AUDIO
TITLE "Já na? podeis ser contentes "
ISRC ZP4003503644
INDEX 00 04:26:51
INDEX 01 04:30:23
TRACK 04 AUDIO
TITLE "Perdi a Esperan?a "
ISRC ZP4003503644
INDEX 00 05:28:29
INDEX 01 05:30:38
TRACK 05 AUDIO
TITLE "Cuydados Meus Tao Cuidados "
ISRC ZP4003503644
INDEX 01 06:50:33
TRACK 06 AUDIO
TITLE "Testou minha ventura"
ISRC ZP4003503644
INDEX 00 08:28:44
INDEX 01 08:30:48
TRACK 07 AUDIO
TITLE "Porque Me Nao Vês Joana "
ISRC ZP4003503644
INDEX 00 10:03:02
INDEX 01 10:05:10
TRACK 08 AUDIO
TITLE "Miguel de FUENLLANA. Fantasia"
ISRC ZP4003503644
INDEX 00 11:45:11
INDEX 01 11:51:28
TRACK 09 AUDIO
TITLE "Pedro de ESCOBAR, Alonso MUDARRA. Clamabat autem mulier"
ISRC ZP4003503644
INDEX 01 13:29:69
TRACK 10 AUDIO
TITLE "Alonso MUDARRA. Pavan and Galliard d'Alexandra"
ISRC ZP4003503644
INDEX 00 16:59:01
INDEX 01 17:03:08
TRACK 11 AUDIO
TITLE "Pedro de ESCOBAR. Secaronme los pesares"
ISRC ZP4003503644
INDEX 00 20:03:08
INDEX 01 20:06:70
TRACK 12 AUDIO
TITLE "Ninha era la Infanta"
ISRC ZP4003503644
INDEX 00 23:38:07
INDEX 01 23:39:40
TRACK 13 AUDIO
TITLE "Vos Se?ora a Maltratarme"
ISRC ZP4003503644
INDEX 00 26:44:62
INDEX 01 26:46:05
TRACK 14 AUDIO
TITLE "Mis Ojos tristes lhorando"
ISRC ZP4003503644
INDEX 00 29:22:35
INDEX 01 29:29:38
TRACK 15 AUDIO
TITLE "Pedro de ESCOBAR. Gran plaser siento yo ya"
ISRC ZP4003503644
INDEX 01 30:50:50
TRACK 16 AUDIO
TITLE "Pedro de ESCOBAR. Pásame Por Dios Barquero "
ISRC ZP4003503644
INDEX 01 32:08:23
TRACK 17 AUDIO
TITLE "Manuel CARDOSO. Tantum ergo sacramentum"
ISRC ZP4003503644
INDEX 00 35:21:31
INDEX 01 35:26:03
TRACK 18 AUDIO
TITLE "Manuel Rodrigues COELHO. Tiento para arpa"
ISRC ZP4003503644
INDEX 00 37:47:05
INDEX 01 37:49:08
TRACK 19 AUDIO
TITLE "Senhora del mundo"
ISRC ZP4003503644
INDEX 00 48:34:23
INDEX 01 48:38:35
TRACK 20 AUDIO
TITLE "Nao tragais borzeguis pretos "
ISRC ZP4003503644
INDEX 00 51:49:53
INDEX 01 51:51:38
TRACK 21 AUDIO
TITLE "Manuel MACHADO.Paso a paso, empe?os mios "
ISRC ZP4003503644
INDEX 00 54:06:62
INDEX 01 54:14:65
TRACK 22 AUDIO
TITLE "Yo sonhava que me ablava"
ISRC ZP4003503644
INDEX 01 57:34:15
TRACK 23 AUDIO
TITLE "Puestos estan frente a frente"
ISRC ZP4003503644
INDEX 01 60:14:58
谢谢楼主分享!!!