《AQUA PLUS歌曲收藏集》(AQUA PLUS)[Pure-AQUAPLUS LEGEND OF ACOUSTICS][Booklet付][TTA]

《AQUA PLUS歌曲收藏集》(AQUA PLUS)[Pure-AQUAPLUS LEGEND OF ACOUSTICS][Booklet付][TTA]
  • 片  名  《AQUA PLUS歌曲收藏集》(AQUA PLUS)[Pure-AQUAPLUS LEGEND OF ACOUSTICS][Booklet付][TTA]
  • 简  介  发行时间: 2007年11月28日对白语言: 日语
  • 类  别  动漫
  • 小  类  动漫周边


  • 详细介绍中文名: AQUA PLUS歌曲收藏集英文名: AQUA PLUS别名: アクアプラス 版本: [Pure-AQUAPLUS LEGEND OF ACOUSTICS][Booklet付][TTA]发行时间: 2007年11月28日地区: 日本对白语言: 日语简介:
    【內容介紹】
    AQUAPLUS做为LEAF社的京都工作室,主要代理LEAF社的家用机游戏,所以可以理解为是LEAF社的MJ。做为GALGAME的知名会社,AQUAPLUS有诸如《传颂之物 うたわれるもの》、《To Heart》系列、《Routes》、《こみっくパーティー》等知名游戏。而Suara作为LEAF社自社主推的乐手也被众多动漫游戏fans所喜爱。
    Pure -AQUAPLUS LEGEND OF ACOUSTICS-的这张精选原声大碟,收录了AQUAPLUS发行的几款知名游戏中的配乐以及主题曲。由Suara和Elements Garden这个音乐演奏团体的音乐人合作,但实际上这张专辑更像是Suara的个人精选集,她的5首歌被重新编曲后赋予了不同的感觉,在二胡、提琴、钢琴的陪衬下听起来感觉相当舒服。Suara的歌声本身就是那种很有自信也给人自信的类型,让人感觉清澈而温暖。
    【專輯介紹】
    Pure-AQUAPLUS LEGEND OF ACOUSTICS
    ◆商品番号: KICA-1450
    ◆メディア: CD
    ◆組枚数: 1
    ◆発売日: 2007/11/28
    ◆価格: 3,000円(税込)
    【アーティスト/ キャスト】
    Suara(アーティスト)
    「内容」
    「Leaf」から超ヒットを飛ばした「ToHeart」シリーズ、「うたわれるもの」シリーズ、「鎖」などのアニメ・ゲームOP、ED、BGMの中から特に話題の楽曲を選りすぐり、それらを全てアコースティックにリアレンジしたアルバム。
    アレンジは「Elements Garden」の最強作家陣が、ミュージシャンには篠崎ストリングス、弦一徹ストリングスなどの一流どころ総なめに起用、また「Leaf」の歌姫Suaraが歌うことによりアニメ・ゲームファンにとっても音楽ファンにとってもたまらない1枚。通常のCDと、SACD(普通のCDプレーヤーでも聴けるハイブリット仕様)の2種類をリリース!
    【收錄曲目】
    01.運命-SADAME-
    02.Heart To Heart
    03.それぞれの未来へ
    04.夢想歌(歌:Suara)
    05.永久に
    06.POWDER SNOW(歌:Suara)
    07.エターナルラブ
    08.末期の言葉~最期の誓い~静寂
    09.キミガタメ(歌:Suara)
    10.星座(歌:Suara)
  • 《AQUA PLUS歌曲收藏集》(AQUA PLUS)[Pure-AQUAPLUS LEGEND OF ACOUSTICS][Booklet付][TTA]_large

精选评论

一句话评价:田园风格
这碟少说是多声道的
要怎么才能放成环绕声啊?
楼上的这么厉害,还要环绕声。。。
很不错啊,超级喜欢。
 ̄ˇ ̄ 收藏了
很久以前就下了,超喜欢
谢谢LZ给的地址,感激~~
这么好的音乐,强烈要求补源。
的确是好音乐,谢谢LZ分享。如果能补源的话就更好了,希望哪位好人能在放源出来。谢谢了!
leaf是aqu的马夹才对吧
终于下完了。不过,修正cue文件是惯例:

REM DISCID 740C390A
REM COMMENT "ExactAudioCopy v0.99pb3"
PERFORMER "AQUAPLUS"
TITLE "Pure-AQUAPLUS LEGEND OF ACOUSTICS"
FILE "AQUAPLUS - Pure-AQUAPLUS LEGEND OF ACOUSTICS.tta" WAVE
TRACK 01 AUDIO
TITLE "運命-SADAME-"
PERFORMER "AQUAPLUS"
INDEX 01 00:00:00
TRACK 02 AUDIO
TITLE "Heart To heart"
PERFORMER "AQUAPLUS"
INDEX 00 04:36:19
INDEX 01 04:38:31
TRACK 03 AUDIO
TITLE "それぞれの未来へ"
PERFORMER "AQUAPLUS"
INDEX 00 09:20:46
INDEX 01 09:22:56
TRACK 04 AUDIO
TITLE "夢想歌"
PERFORMER "Suara"
INDEX 00 13:52:10
INDEX 01 13:53:54
TRACK 05 AUDIO
TITLE "永久に"
PERFORMER "AQUAPLUS"
INDEX 00 19:19:56
INDEX 01 19:21:39
TRACK 06 AUDIO
TITLE "POWER SNOW"
PERFORMER "Suara"
INDEX 00 25:12:64
INDEX 01 25:14:73
TRACK 07 AUDIO
TITLE "エターナルラブ"
PERFORMER "AQUAPLUS"
INDEX 00 30:28:43
INDEX 01 30:30:49
TRACK 08 AUDIO
TITLE "末期の言葉~最期の誓い~静寂"
PERFORMER "AQUAPLUS"
INDEX 00 34:59:23
INDEX 01 35:01:36
TRACK 09 AUDIO
TITLE "キミガタメ"
PERFORMER "Suara"
INDEX 00 39:48:62
INDEX 01 39:51:34
TRACK 10 AUDIO
TITLE "星座"
PERFORMER "Suara"
INDEX 00 45:24:65
INDEX 01 45:28:00
非常强大的录音,纯器乐和歌曲旋律都很优美,强烈推荐!
感谢分享!