《传颂之物主题曲集》(Utawarerumono)[ED Single まどろみの輪廻][Booklet付][APE]

《传颂之物主题曲集》(Utawarerumono)[ED Single まどろみの輪廻][Booklet付][APE]
  • 片  名  《传颂之物主题曲集》(Utawarerumono)[ED Single まどろみの輪廻][Booklet付][APE]
  • 简  介  发行时间: 2006年06月07日对白语言: 日语
  • 类  别  动漫
  • 小  类  动漫周边


  • 详细介绍中文名: 传颂之物主题曲集英文名: Utawarerumono别名: うたわれるもの版本: [ED Single まどろみの輪廻][Booklet付][APE]发行时间: 2006年06月07日地区: 日本对白语言: 日语简介:
    【剧情介绍】
    故事的舞台是被葱郁林木包围着充满自然界气息的世界。那里的人外表与常人一致,但因长着动物一样的耳朵和尾巴而被称之为“亚人类”。故事由居住在某处边境村庄的艾露露帮助一位身负重伤的假面青年开始。青年幸运地捡回一条命,但却失去了记忆。艾露露的祖母托斯库尔给他起名为“哈库罗”。这次际遇成为引导他们坎坷命运的开端...
    【专辑介绍】
    アニメ「うたわれるもの」エンディングテーマ: まどろみの輪廻
    商品番号: LACM-4266
    メディア: マキシシングルCD
    組枚数: 1
    発売日: 2006/06/07
    価格: 1200円(税込)
    【Artist# Cast】
    河井英里 (アーティスト)  畑亜貴 (作詞者) 
    伊藤真澄 (作曲者)  森由里子 (作詞者) 
    羽岡佳 (編曲者) 
    内容
    人気ゲーム「うたわれるもの」が4月よりTVアニメ化 そのEDを担当するのは河井英里。芸大の作曲科卒というその折り紙付きの実力を遺憾なく発揮し幻想的かつ心打つ歌声が作品にベストマッチ アニメ描き下ろしジャケット。
    【收录曲目】
    1. まどろみの輪廻
    2. 千の海を越えて
    3. まどろみの輪廻 off vocal
    4. 千の海を越えて off vocal
  • 《传颂之物主题曲集》(Utawarerumono)[ED Single まどろみの輪廻][Booklet付][APE]_large

精选评论

这个是TTA的 不是APE的好不好
CATALOG 4540774402663
PERFORMER "Lantis"
TITLE "まどろみの輪廻"
FILE "LACM-4266.tta" WAVE
TRACK 01 AUDIO
TITLE "まどろみの輪廻"
PERFORMER "Lantis"
ISRC JPI100600920
INDEX 01 00:00:00
TRACK 02 AUDIO
TITLE "千の海を越えて"
PERFORMER "Lantis"
ISRC JPI100600921
INDEX 00 05:08:39
INDEX 01 05:11:52
TRACK 03 AUDIO
TITLE "まどろみの輪廻 (off vocal)"
PERFORMER "Lantis"
ISRC JPI100600922
INDEX 00 10:14:67
INDEX 01 10:18:05
TRACK 04 AUDIO
TITLE "千の海を越えて (off vocal)"
PERFORMER "Lantis"
ISRC JPI100600923
INDEX 00 15:26:44
INDEX 01 15:29:56



CUE修复