《死神角色歌曲精选集》(BLEACH)[BEAT COLLECTION THE BEST 1][TTA]

《死神角色歌曲精选集》(BLEACH)[BEAT COLLECTION THE BEST 1][TTA]
  • 片  名  《死神角色歌曲精选集》(BLEACH)[BEAT COLLECTION THE BEST 1][TTA]
  • 简  介  发行时间: 2007年03月21日对白语言: 日语文字语言: 日文
  • 类  别  动漫
  • 小  类  动漫周边


  • 详细介绍中文名: 死神角色歌曲精选集英文名: BLEACH资源格式: TTA版本: [BEAT COLLECTION THE BEST 1]发行时间: 2007年03月21日地区: 日本对白语言: 日语文字语言: 日文简介:
    【剧情介绍】
    最开始的时候黑崎一护只是个看似单薄却满身热血的暴力少年,拥有能看见幽灵的体质日子平凡。家里一开医院兼除灵的老爸和两个性格绝对正常的妹妹,外加每天七点必须按时回家否则便用身体语言教训的暴力家规。吵闹的父子懂事的妹妹以及与其他普通漫画主角无大异的普通生活。等到露琪亚被他一脚踢到墙角并满脸惊疑地望着他问“你能看见我?”时序幕才这样被他正式地踢开了来。
    【专辑介绍】
    BLEACH BEAT COLLECTION THE BEST 1
    商品番号: SVWC-7458
    メディア: CD
    组枚数: 2
    発売日: 2007/03/21
    価格: 3045円(税込)
    【アーティスト/ キャスト】
    黒崎一护(森田成一) (アーティスト) 东川遥 (作词者) 
    PAL@POP (作曲者) 阿散井恋次(伊藤健太郎) (アーティスト) 
    デーモン小暮阁下 (作词者) T.B. (编曲者) 
    石田雨竜(杉山纪彰) (アーティスト) 杉崎実 (作曲者) 
    更木剣八(立木文彦) (アーティスト) 狩矢神(大川透) (アーティスト) 
    市丸ギン(游佐浩二) (アーティスト) 日番谷冬狮郎(朴路美) (アーティスト) 
    松本乱菊(松谷彼哉) (アーティスト) 松谷彼哉 (作词者) 
    朽木ルキア(折笠富美子) (アーティスト) 斩月(菅生隆之) (アーティスト) 
    りりん(かかずゆみ) (アーティスト) 蔵人(飞田展男) (アーティスト) 
    之芭(杉田智和) (アーティスト) 草鹿やちる(望月久代) (アーティスト) 
    井上织姫(松冈由贵) (アーティスト) 山田花太郎(宫田幸季) (アーティスト) 
    コン(真殿光昭) (アーティスト) H.E.DEMON KOGURE (作词者) 
    雏森桃(佐久间红美) (アーティスト) 11番队 (アーティスト)   
      
    「内容」
    「週刊少年ジャンプ」にて大人気连载中、TVアニメ、映画に加え、12月13日にリリースした主题歌ベストアルバム「BLEACH THE BEST」もオリコンウィークリーチャート初登场3位にランクインされるなど絶好调の「BLEACH」!! 今度は、「BLEACH BEAT COLLECTION」ベストアルバムが発売!! 今までに登场した20キャラ全员の楽曲に加え、2006年末「剧场版」公开时に剧场前売券のバンドルCDとして収録した黒崎一护役・森田成一と日番谷冬狮郎役・朴ろ美のソロ各1曲、计2曲のフルコーラスバージョン収録。封入のブックレットには森田成一书き下ろしライナーノーツを挿入。
    【收录曲目】
    Disc 1: - ROCK SIDE -
    01. Sky High '07/ 黒崎一护(森田成一)
    02. Standing to defend you '07/ 阿散井恋次(伊藤健太郎)
    03. 水银灯の夜 '07/ 石田雨竜(杉山纪彰)
    04. Rosa Rubicundior,Lilio Candidior/ 阿散井恋次(伊藤健太郎)
    05. COME to LIKE it.This FIGHT Now./ 更木剣八(立木文彦)
    06. Looking for…/ 狩矢神(大川透)
    07. 表裏 Hyo-ri '07/ 市丸ギン(游佐浩二)
    08. This Light I See '07/ 日番谷冬狮郎(朴路美)
    09. 乱华~RANKA~ '07/ 松本乱菊(松谷彼哉)
    10. 风 ~Dub Wind Mix~/ 朽木ルキア(折笠富美子)
    11. Rain/ 斩月(菅生隆之)
    12. JUST BLEACH -Full Version-/ 黒崎一护(森田成一)
    Disc 2: - POP DUET SIDE -
    01. GAME!GAME!GAME!/ りりん(かかずゆみ)
    02. Funny days/ 草鹿やちる(望月久代)
    03. lalala♪/ 井上织姫(松冈由贵)
    04. 花太郎です '07/ 山田花太郎(宫田幸季)
    05. 心配ナイ おネェさん -KING KON Remix- '07/ コン
  • 《死神角色歌曲精选集》(BLEACH)[BEAT COLLECTION THE BEST 1][TTA]_large

精选评论

那个cue档有一点怪怪的,
似是坏掉了,
可不可以重发一次cue档,
或是补上mp3格式的。
感谢大大。
先来回复下~慢慢拖
PERFORMER "不明なアーティスト"
TITLE "不明なタイトル"
FILE "CDImage.tta" WAVE
TRACK 01 AUDIO
TITLE "Track01"
PERFORMER "不明なアーティスト"
ISRC JPE300700261
INDEX 01 00:00:00
TRACK 02 AUDIO
TITLE "Track02"
PERFORMER "不明なアーティスト"
ISRC JPE300700262
INDEX 01 04:10:04
TRACK 03 AUDIO
TITLE "Track03"
PERFORMER "不明なアーティスト"
ISRC JPE300700263
INDEX 01 07:47:44
TRACK 04 AUDIO
TITLE "Track04"
PERFORMER "不明なアーティスト"
ISRC JPE300500921
INDEX 01 11:52:71
TRACK 05 AUDIO
TITLE "Track05"
PERFORMER "不明なアーティスト"
ISRC JPE300600902
INDEX 01 15:55:19
TRACK 06 AUDIO
TITLE "Track06"
PERFORMER "不明なアーティスト"
ISRC JPE300601301
INDEX 00 19:33:24
INDEX 01 19:34:30
TRACK 07 AUDIO
TITLE "Track07"
PERFORMER "不明なアーティスト"
ISRC JPE300700264
INDEX 01 22:38:02
TRACK 08 AUDIO
TITLE "Track08"
PERFORMER "不明なアーティスト"
ISRC JPE300700265
INDEX 00 26:22:17
INDEX 01 26:23:41
TRACK 09 AUDIO
TITLE "Track09"
PERFORMER "不明なアーティスト"
ISRC JPE300700266
INDEX 01 30:11:57
TRACK 10 AUDIO
TITLE "Track10"
PERFORMER "不明なアーティスト"
ISRC JPE300601845
INDEX 01 33:25:27
TRACK 11 AUDIO
TITLE "Track11"
PERFORMER "不明なアーティスト"
ISRC JPE300600462
INDEX 01 37:48:60
TRACK 12 AUDIO
TITLE "Track12"
PERFORMER "不明なアーティスト"
ISRC JPE300700227
INDEX 00 42:41:02
INDEX 01 42:42:73
==================================
CD2没出啊~~忧郁~~
喜欢死神不?喜欢的话请加入

死神界一度空间: 53480839

死神界二度空间:53481215

死神界三度空间:196108369

有心~愿意者加入~~谢谢~死神为主~死神聚在一起的空间按 ~动漫无话不说的~~谢谢~进来后请自觉改你喜欢的死神名字
有bk就完美了
请问三楼的不明怎么用啊
哦哦哦~~~ = =+
沒想到Bleach會有角色歌......
我真的不知道耶~
謝謝分享!! ^^y