杜德伟 -《天旋地转》[APE]

杜德伟 -《天旋地转》[APE]
  • 片  名  杜德伟 -《天旋地转》[APE]
  • 简  介  发行时间: 1994年地区: 台湾语言: 普通话
  • 类  别  音乐
  • 小  类  华语音乐


  • 详细介绍专辑中文名: 天旋地转歌手: 杜德伟资源格式: APE发行时间: 1994年地区: 台湾语言: 普通话简介:
    专辑介绍:
    钟爱一生/ 蝉连金曲龙虎榜冠军歌曲,声势夺人。痴痴的等/ 全国电台点播率最高的情歌,让有情人都心醉。谈情说爱/ 杜德伟踏入歌坛成名金曲,初试啼声倍受瞩目。想着你的感觉/ 杜式情歌之经典代表作,深情魅力无人取代。让自己快乐/ 开创国语流行歌坛舞曲风潮第一人。拯救地球/ 创新舞步表演结合环保意念,用快乐袭卷每一个人。GO GO CAT/ 复古与新潮的音乐融合,杜德伟才华彻底展现。
    入行18年,现在的杜德伟一路走来,越来越自在!可以大方地公开恋情、选择自己真正有意愿参与的工作、有更多时间与父母相处,杜德伟满意地说:“我是一个幸运的人。”
    “可刚不可硬,可柔不可弱”,这两句李小龙的名言,是杜德伟的座右铭。去年10月与滚石续约以前,杜德伟当了两年自由人,他说:“那真是低潮,因为市道这么差,盗版又多,当时甚至打算不唱了。”后来杜德伟开始拍戏,拓展演艺事业更多可能,他常常以偶像李小龙的“水”哲学勉励自己,他说:“水可以是一滴一滴,也可以是大浪,装在什么容器就是什么样子,我也希望自己能用这种心态看事情。”
    (APE原创:乐与怒)
  • 杜德伟 -《天旋地转》[APE]_large

精选评论

这张应该算是精选辑了 一直以来非常喜欢杜德伟的歌 一楼而且第一个收藏非常荣幸 感谢楼主发布
喜欢这张碟,自己有个磁带,但是没有播放的录音机了,谢谢楼主共享,不过cue文件下载好久,还没下来,能复制个cue数据在这里吗?谢谢!
终于找到CUE数据

PERFORMER "杜德伟"
TITLE "天旋地转"
FILE "杜德伟.-.[天旋地转].专辑.(ape).ape" WAVE
TRACK 01 AUDIO
TITLE "她这般狂野"
PERFORMER "杜德伟"
INDEX 01 00:00:00
TRACK 02 AUDIO
TITLE "让自己快乐"
PERFORMER "杜德伟"
INDEX 00 03:40:01
INDEX 01 03:43:00
TRACK 03 AUDIO
TITLE "热量"
PERFORMER "杜德伟"
INDEX 00 07:30:25
INDEX 01 07:33:25
TRACK 04 AUDIO
TITLE "拯救地球"
PERFORMER "杜德伟"
INDEX 00 12:14:67
INDEX 01 12:17:62
TRACK 05 AUDIO
TITLE "温柔陷阱"
PERFORMER "杜德伟"
INDEX 00 16:11:50
INDEX 01 16:14:50
TRACK 06 AUDIO
TITLE "GO GO CAT"
PERFORMER "杜德伟"
INDEX 00 20:44:30
INDEX 01 20:47:25
TRACK 07 AUDIO
TITLE "谈情说爱"
PERFORMER "杜德伟"
INDEX 00 25:05:26
INDEX 01 25:08:25
TRACK 08 AUDIO
TITLE "想着你的感觉"
PERFORMER "杜德伟"
INDEX 00 29:19:50
INDEX 01 29:22:37
TRACK 09 AUDIO
TITLE "钟爱一生"
PERFORMER "杜德伟"
INDEX 00 33:18:10
INDEX 01 33:21:00
TRACK 10 AUDIO
TITLE "是我宠坏了你"
PERFORMER "杜德伟"
INDEX 00 37:51:47
INDEX 01 37:54:50
TRACK 11 AUDIO
TITLE "痴痴的等"
PERFORMER "杜德伟"
INDEX 00 41:29:37
INDEX 01 41:32:25
TRACK 12 AUDIO
TITLE "放一颗心"
PERFORMER "杜德伟"
INDEX 00 45:30:08
INDEX 01 45:33:00
谢谢分享
比《原来我爱你那么多》精选的音质强!