群星 -《歌声篇8.原声态(客家山歌)》[捷奏文化][DTS]

群星 -《歌声篇8.原声态(客家山歌)》[捷奏文化][DTS]
  • 片  名  群星 -《歌声篇8.原声态(客家山歌)》[捷奏文化][DTS]
  • 简  介  音乐类型: 试音碟发行时间: 2005年10月
  • 类  别  音乐
  • 小  类  其它音乐


  • 详细介绍专辑中文名: 歌声篇8.原声态(客家山歌)艺术家: 群星音乐类型: 试音碟资源格式: DTS版本: [捷奏文化]发行时间: 2005年10月地区: 大陆语言: 普通话简介: 版权提供:广州捷奏文化科技有限公司
    出版公司:北京中唱时代音像出版有限公司
    发行公司:广西民族音像出版社
    专辑简介:
    如此经典的旋律,如此新鲜的诠释。
    这一次,捷奏继DTS纯音乐之后,再次用发展和继承的思路来完成这次的DTS歌声篇。
    在这些音乐中,音乐制作将自然和习惯的元素注入音乐中。当一次次的延续之后,回归平淡才是真,这与捷奏人将多声道音乐的聆听不断地从一次延伸到另一次的承诺一脉相承。我们有理由相信,从单声道到立体声的进化,以及从立体声到多声道的进化都是一种进化的必然,是人对生活品质的全方位追求提升的一种必然结果.
  • 群星 -《歌声篇8.原声态(客家山歌)》[捷奏文化][DTS]_large

精选评论

PERFORMER "捷奏文化"
TITLE "歌声篇8.原声态(客家山歌)"
FILE "捷奏文化.-.[歌声篇8.原声态(客家山歌)].专辑.(DTS).dts" WAVE
TRACK 01 AUDIO
TITLE "水深也有造桥人"
PERFORMER "群星"
REM DATE 2007
INDEX 01 00:00:00
TRACK 02 AUDIO
TITLE "送郎"
PERFORMER "群星"
REM DATE 2007
INDEX 00 03:12:46
INDEX 01 03:14:46
TRACK 03 AUDIO
TITLE "只因家乡喜事多"
PERFORMER "群星"
REM DATE 2007
INDEX 00 07:11:11
INDEX 01 07:13:11
TRACK 04 AUDIO
TITLE "好久唔曾到笔坑"
PERFORMER "群星"
REM DATE 2007
INDEX 00 10:41:14
INDEX 01 10:43:14
TRACK 05 AUDIO
TITLE "送人离别水东西"
PERFORMER "群星"
REM DATE 2007
INDEX 00 14:37:57
INDEX 01 14:39:57
TRACK 06 AUDIO
TITLE "哪有阿妹唔惜郎"
PERFORMER "群星"
REM DATE 2007
INDEX 00 18:08:23
INDEX 01 18:10:23
TRACK 07 AUDIO
TITLE "阿哥人我做乜个"
PERFORMER "群星"
REM DATE 2007
INDEX 00 21:51:38
INDEX 01 21:53:38
TRACK 08 AUDIO
TITLE "条条山歌有妹名"
PERFORMER "群星"
REM DATE 2007
INDEX 00 25:33:05
INDEX 01 25:35:05
TRACK 09 AUDIO
TITLE "唔见亲哥想断肠"
PERFORMER "群星"
REM DATE 2007
INDEX 00 29:39:25
INDEX 01 29:41:25
TRACK 10 AUDIO
TITLE "榄树揽花花揽仔"
PERFORMER "群星"
REM DATE 2007
INDEX 00 32:43:64
INDEX 01 32:45:64
TRACK 11 AUDIO
TITLE "甜蜜蜜"
PERFORMER "群星"
REM DATE 2007
INDEX 00 36:47:37
INDEX 01 36:49:37
TRACK 12 AUDIO
TITLE "试听赠送 天堂 选自《草原印象系列》"
PERFORMER "群星"
REM DATE 2007
INDEX 00 40:08:23
INDEX 01 40:10:23
捷奏文化 《歌声篇》电驴已有:

《歌声篇1.纯真年代》
http://www.VeryCD.com/topics/2753093/

《歌声篇2-邓丽君情歌对唱》
http://www.VeryCD.com/topics/2753629/

《歌声篇3-非常经典》
http://www.VeryCD.com/topics/164593/

《歌声篇4-流行经典》
http://www.VeryCD.com/topics/2754672/

《歌声篇5-经典民歌对唱》
http://www.VeryCD.com/topics/2754803/

《歌声篇6-情感泪砂》
http://www.VeryCD.com/topics/2754821/

《歌声篇7 回忆的痕迹》
http://www.VeryCD.com/topics/2754824/

《歌声篇8-原声态·客家山歌》
http://www.VeryCD.com/topics/2754850/

待发:
《歌声篇9-经典英文歌曲》
好碟,顶!
客家山歌好,感谢楼主的资源共享
LZ是个好人,你麽样就知道我要这个咧,嘻嘻~~

我也很喜欢,正听着呢。很不错的说。
最喜欢“只因家乡喜事多”和“榄树揽花花揽仔”,旋律很欢快。
楼主那个狂筝努点力,先主力分享出去;看你供源的情况,建议你更换适合发布资源的MOD,如Xtreme7.2,ScarAngel3.1。

排队资源多了,会很占用资源,对上传和下载双方都是这样的~~

这个先精华了,请保证把这些前面已发布的供完成,其它先不忙着上了。切切~~
本人还没达到听客家的境界
下来试试。。。XXLZ
没有源啊。。。。。。。。
楼主好碟很多,可就是没源啊!
楼主太强大了,感谢分享!
谢谢楼主分享,楼主加油供源啊。